ВАЖНО! Сайт скоро заблокируют! Подписывайся на наш канал в Telegram https://t.me/torrentok и получи доступ к торрентам без ограничений!
.
Авторизация | Регистрация
bitok.xyz
Торрент скачать бесплатно Мультфильмы торрент скачать Супермен: Красный сын / Superman: Red Son (2020) WEBRip [H.264 / 1080p] торрент скачать бесплатно


    Супермен: Красный сын / Superman: Red Son (2020) WEBRip [H.264 / 1080p] торрент скачать бесплатно

    Дата: 29-02-2020, 05:00 | .torrent скачали: 0

    Супермен: Красный сын / Superman: Red Son (2020) WEBRip [H.264 / 1080p]Производство: США/Warner Bros. Animation
    Жанр: мультфильм, боевик, фантастика

    Описание

    В послевоенном Советском Союзе у деревенского мальчишки просыпаются невероятные способности, которые его подруга убеждает использовать на благо советского народа. Несколько лет спустя Супермен — символ непобедимости СССР и главный козырь товарища Сталина в гонке вооружений с США. Однажды Супермен спасает Метрополис от падения на него спутника и знакомится с журналисткой Лоис Лейн, которая открывает ему глаза на репрессии в Союзе. Узнав шокирующую правду о принудительном труде, Супермен испепеляет Сталина и сам возглавляет страну. А в это время муж Лоис Лейн, миллионер Лекс Лютор, на основе образцов ДНК со спутника создаёт своего супергероя.

    Рейтинг MPAA: PG-13 (детям до 13 лет просмотр нежелателен)
    Дата мировой премьеры: 24 февраля 2020
    Релиз от: Astral Projection
    Продолжительность: 01: 25: 00
    Качество видео: WEBRip
    Перевод: Многоголосый любительский (Sakura Studio)
    Субтитры: Русские, Английские
    Видео: AVC/H.264, 1920x1080, ~7821 Kbps
    Аудио#1: AC3, 6 ch, 384 Kbps | Русский
    Аудио#2: AC3, 6 ch, 384 Kbps | Английски
    General
    Unique ID : 204613007926204172584993230586591708578 (0x99EF082A714B1307CB599F81717A05A2)
    Complete name : D: TorrentUploadCartoonSuperman Red Son.mkv
    Format : Matroska
    Format version : Version 4
    File size : 5.11 GiB
    Duration : 1 h 25 min
    Overall bit rate : 8 591 kb/s
    Encoded date : UTC 2020-02-27 23: 59: 04
    Writing application : mkvmerge v43.0.0 (\'The Quartermaster\') 64-bit
    Writing library : libebml v1.3.10 + libmatroska v1.5.2
    Video
    ID : 1
    Format : AVC
    Format/Info : Advanced Video Codec
    Format profile : High@L4
    Format settings : CABAC/2 Ref Frames
    Format settings, CABAC : Yes
    Format settings, Reference frames : 2 frames
    Codec ID : V_MPEG4/ISO/AVC
    Duration : 1 h 25 min
    Bit rate : 7 821 kb/s
    Width : 1 920 pixels
    Height : 1 080 pixels
    Display aspect ratio : 16: 9
    Frame rate mode : Constant
    Frame rate : 23.976 (24000/1001) FPS
    Color space : YUV
    Chroma subsampling : 4: 2: 0
    Bit depth : 8 bits
    Scan type : Progressive
    Bits/(Pixel*Frame) : 0.157
    Stream size : 4.65 GiB (91%)
    Writing library : x264 core 155 r2901 7d0ff22
    Default : Yes
    Forced : No
    Color range : Limited
    Color primaries : BT.709
    Transfer characteristics : BT.709
    Matrix coefficients : BT.709
    Audio #1
    ID : 2
    Format : AC-3
    Format/Info : Audio Coding 3
    Commercial name : Dolby Digital
    Codec ID : A_AC3
    Duration : 1 h 25 min
    Bit rate mode : Constant
    Bit rate : 384 kb/s
    Channel(s) : 6 channels
    Channel layout : L R C LFE Ls Rs
    Sampling rate : 48.0 kHz
    Frame rate : 31.250 FPS (1536 SPF)
    Compression mode : Lossy
    Stream size : 234 MiB (4%)
    Language : Russian
    Service kind : Complete Main
    Default : Yes
    Forced : Yes
    Audio #2
    ID : 3
    Format : AC-3
    Format/Info : Audio Coding 3
    Commercial name : Dolby Digital
    Codec ID : A_AC3
    Duration : 1 h 25 min
    Bit rate mode : Constant
    Bit rate : 384 kb/s
    Channel(s) : 6 channels
    Channel layout : L R C LFE Ls Rs
    Sampling rate : 48.0 kHz
    Frame rate : 31.250 FPS (1536 SPF)
    Compression mode : Lossy
    Stream size : 234 MiB (4%)
    Title : English
    Language : English
    Service kind : Complete Main
    Default : No
    Forced : No
    Text #1
    ID : 4
    Format : UTF-8
    Codec ID : S_TEXT/UTF8
    Codec ID/Info : UTF-8 Plain Text
    Duration : 1 h 20 min
    Bit rate : 57 b/s
    Count of elements : 1070
    Stream size : 34.1 KiB (0%)
    Language : English
    Default : No
    Forced : No
    Text #2
    ID : 5
    Format : UTF-8
    Codec ID : S_TEXT/UTF8
    Codec ID/Info : UTF-8 Plain Text
    Duration : 1 h 20 min
    Bit rate : 87 b/s
    Count of elements : 974
    Stream size : 51.2 KiB (0%)
    Language : Russian
    Default : No
    Forced : No

    Скриншоты для ознакомления



    Все одноименные релизы в Клубе
    Время раздачи: с 10: 00 до 2: 30 (до появления первых 3-5 скачавших)

    Онлайн видео Супермен: Красный сын


    Супермен: Красный сын / Superman: Red Son (2020) WEBRip [H.264 / 1080p] торрент скачать бесплатно
    Рейтинг →
     (голосов: 1, оценка 3/5, голосовать можно 1 раз )

    Другие торренты по теме:

  • Супермен: Красный сын / Superman: Red Son (2020) UHD BDRemux [H.265 / 2160p] [4K, HDR, 10-bit]


    • Комментарии (0):

      Информация

      Информация

        Посетители, находящиеся в группе Гости, не могут оставлять комментарии в данной новости.

        ↓ Меню




        Популярное

        Роботы-пожарные / Fire Robo (2016) WEB-DLRip [H.264 / 720p-LQ] (сезон 1, серии 1-26 из 26) [Обновляемая]

        (скачиваний: 6)
        Лея Уотерс | Переключение на силу. Как научиться видеть в детях сильные стороны, чтобы помочь им расцвести (2019) [EPUB]

        (скачиваний: 5)
        Сергей Матвеев | Полный курс английского языка для лентяев (2016) [PDF]

        (скачиваний: 5)
        Жила-была царевна (2015-2019) WEB-DLRip [H.264 / 720p-LQ] (сезон 1, серии 1-18 из 26) [Обновляемая]

        (скачиваний: 4)
        Металионы / Metalions (2018-2019) WEB-DLRip [H.264 / 720p-LQ] (сезон 1, серии 1-52 из 52) [Обновляемая]

        (скачиваний: 4)
        Алексей Марков | Хулиганская экономика. Финансовые рынки для хулиганов и их родителей (2019) [EPUB]

        (скачиваний: 4)
        Серия книг | Образовательная манга (2010 - 2015) [PDF]

        (скачиваний: 4)
        Александр Нилл | Воспитание свободой. Школа Саммерхилл (2020) [EPUB]

        (скачиваний: 4)
        Мариэтта Чудакова | Рассказы про Россию. 1861—1922 (2020) [EPUB]

        (скачиваний: 3)
        Алена Зюрикова | Дзен в декрете, или Как не сойти с ума от счастья. Режим, сон, воспитание и хорошее настроение (2020) [EPUB]

        (скачиваний: 3)