ВАЖНО! Сайт скоро заблокируют! Подписывайся на наш канал в Telegram https://t.me/torrentok и получи доступ к торрентам без ограничений!
.
Авторизация | Регистрация
bitok.xyz
Торрент скачать бесплатно Мультфильмы торрент скачать Звёздные Войны: Войны Клонов / Star Wars: The Clone Wars (2020) WEB-DLRip [H.264 / 720p-LQ] (Сезон 7, Серия 1 из 12) LostFilm (Обновляемая) торрент скачать бесплатно


    Звёздные Войны: Войны Клонов / Star Wars: The Clone Wars (2020) WEB-DLRip [H.264 / 720p-LQ] (Сезон 7, Серия 1 из 12) LostFilm (Обновляемая) торрент скачать бесплатно

    Дата: 29-02-2020, 05:00 | .torrent скачали: 0

    Звёздные Войны: Войны Клонов / Star Wars: The Clone Wars (2020) WEB-DLRip [H.264 / 720p-LQ] (Сезон 7, Серия 1 из 12) LostFilm (Обновляемая)Производство: США/CGCG, Lucasfilm Animation Singapore, Lucasfilm Ltd.
    Жанр: Мультфильм, Фантастика, Фэнтези, Боевик, Драма, Приключения
    Режиссер: Стюарт Ли, Брайан О’Коннелл, Кайл Данливи

    Актеры
    Том Кэйн, Мэтт Лантер, Ди Брэдли Бейкер, Джеймс Арнольд Тейлор, Мэттью Вуд, Кори Бертон, Эшли Экштейн, Терренс Т.К. Карсон, Катрин Табер, Йен Эберкромби

    Описание

    На передовых позициях межгалактической войны Добра и Зла — снова любимые герои: Энакин Скайуокер, Оби-Ван Кеноби и Падме Амидала, а также присоединившийся к ним падаван Энакина, Асока. Противостоящие им злодеи — Палпатин, граф Дуку и генерал Гривус — вынашивают план захвата Галактики. Великая Армия Республики, ведомая Йодой, Мейсом Винду, Оби-Ваном Кеноби и другими рыцарями-джедаями, сражается против Новой Армии Дроидов сепаратистов. Начинается последняя схватка, и судьбы Вселенной вверены рыцарям-джедаям. Их подвиги станут самыми яркими эпизодами масштабных битв и подарят множество удивительных открытий.

    Возраст: 0+ (нет возрастных ограничений)
    Релиз от: LostFilm
    Продолжительность: ~00: 24: 00 серия
    Качество видео: WEB-DLRip
    Перевод: Многоголосый закадровый (LostFilm)
    Субтитры: Отсутствуют
    Видео: AVC/H.264, 1280x720, ~3500 kbps
    Аудио: AC3, 2 ch, 256 kbps

    Внимание! Раздача ведётся путём добавления новых серий; при каждом добавлении создаётся новый торрент.
    Чтобы начать докачку новой серии, пользователям необходимо сделать следующее:
    1. Остановить скачивание;
    2. Удалить старый торрент у себя из клиента (старые серии удалять не надо);
    3. Скачать новый торрент и запустить его у себя в клиенте вместо старого, при этом указать клиенту путь в старую папку куда и должно происходить скачивание новых серий. Ваш клиент при этом должен произвести хеширование (проверку) старой папки и будет докачивать только те серии, которых у вас ещё нет. Старые серии при этом не удаляются, а продолжают раздаваться! Eсли вы уже удалили старые серии, то предотвратить повторную закачку старых серий можно, отжав галочку в соответствующих местах при запуске нового торрента.

    Общее
    Полное имя : E: СериалыStar Wars.The Clone Wars.S07.LostFilmStar.Wars.The.Clone.Wars.S07E01.720p.rus.LostFilm.TV.mp4
    Формат : MPEG-4
    Профиль формата : Base Media
    Идентификатор кодека : isom
    Размер файла : 750 Мбайт
    Продолжительность : 24 м.
    Режим общего битрейта : Переменный
    Общий поток : 4273 Кбит/сек
    Название фильма : Бракованная партия
    Альбом : Звездные войны: Войны клонов, Сезон 7
    Альбом/Исполнитель : Звездные войны: Войны клонов
    Часть/Положение : 1
    Часть/Всего : 0
    Трек/Положение : 7
    Трек/Всего : 0
    Исполнитель : Звездные войны: Войны клонов
    Жанр : Drama
    Дата записи : 2020
    Дата кодирования : UTC 2020-02-24 19: 14: 41
    Дата пометки : UTC 2020-02-24 19: 14: 41
    Программа кодирования : LostCoder
    Правообладатель : LostFilm.TV(c)
    Обложка : Yes
    Примечание : После того, как Республика и Конфедерация перешли от политического противостояния к вооруженной борьбе, в далекой-далекой галактике наступили темные времена. После битвы за Джеонозис в Войну клонов оказались втянуты жители множества обитаемых планет.
    tvsh : Звездные войны: Войны клонов
    tven : 701
    tvsn : 7
    tves : 1
    stik : 10
    Видео
    Идентификатор : 1
    Формат : AVC
    Формат/Информация : Advanced Video Codec
    Профиль формата : High@L4.1
    Параметр CABAC формата : Да
    Параметр ReFrames формата : 4 кадра
    Идентификатор кодека : avc1
    Идентификатор кодека/Информация : Advanced Video Coding
    Продолжительность : 24 м.
    Битрейт : 4000 Кбит/сек
    Максимальный битрейт : 13, 0 Мбит/сек
    Ширина : 1280 пикселей
    Высота : 720 пикселей
    Соотношение сторон : 16: 9
    Режим частоты кадров : Постоянный
    Частота кадров : 23, 976 кадра/сек
    Цветовое пространство : YUV
    Субдискретизация насыщенности : 4: 2: 0
    Битовая глубина : 8 бит
    Тип развёртки : Прогрессивная
    Бит/(Пиксели*Кадры) : 0.181
    Размер потока : 702 Мбайт (94%)
    Заголовок : Imported with GPAC 0.4.6-DEV (internal rev. 5)
    Библиотека кодирования : x264 core 112 r1834 a51816a
    Настройки программы : cabac=1/ref=4/deblock=1: -3: -2/analyse=0x3: 0x113/me=hex/subme=7/psy=1/psy_rd=1.00: 0.00/mixed_ref=1/me_range=16/chroma_me=1/trellis=1/8x8dct=1/cqm=0/deadzone=21, 11/fast_pskip=1/chroma_qp_offset=-2/threads=6/sliced_threads=0/nr=0/decimate=1/interlaced=0/constrained_intra=0/bframes=5/b_pyramid=2/b_adapt=1/b_bias=0/direct=1/weightb=1/open_gop=0/weightp=2/keyint=250/keyint_min=25/scenecut=40/intra_refresh=0/rc_lookahead=40/rc=2pass/mbtree=1/bitrate=4000/ratetol=1.0/qcomp=0.60/qpmin=0/qpmax=51/qpstep=4/cplxblur=20.0/qblur=0.5/vbv_maxrate=10000/vbv_bufsize=256000/ip_ratio=1.40/aq=1: 1.00/nal_hrd=none
    Дата кодирования : UTC 2020-02-20 21: 00: 05
    Дата пометки : UTC 2020-02-24 19: 16: 52
    Аудио
    Идентификатор : 2
    Формат : AAC
    Формат/Информация : Advanced Audio Codec
    Профиль формата : LC
    Идентификатор кодека : 40
    Продолжительность : 24 м.
    Вид битрейта : Переменный
    Битрейт : 265 Кбит/сек
    Максимальный битрейт : 340 Кбит/сек
    Каналы : 2 канала
    Расположение каналов : Front: L R
    Частота : 48, 0 КГц
    Метод сжатия : С потерями
    Размер потока : 47, 2 Мбайт (6%)
    Дата кодирования : UTC 2020-02-24 19: 16: 48
    Дата пометки : UTC 2020-02-24 19: 16: 52


    Онлайн видео Звёздные Войны: Войны Клонов


    Звёздные Войны: Войны Клонов / Star Wars: The Clone Wars (2020) WEB-DLRip [H.264 / 720p-LQ] (Сезон 7, Серия 1 из 12) LostFilm (Обновляемая) торрент скачать бесплатно
    Рейтинг →
     (голосов: 1, оценка 4/5, голосовать можно 1 раз )

    Другие торренты по теме:

  • Звёздные войны: Пробуждение силы / Star Wars: Episode VII - The Force Awakens (2015) BDRip [H.264] [GER / GER Sub]
  • Звёздные войны: Последние джедаи / Star Wars: Episode VIII - The Last Jedi (2017) BDRip [H.264] [GER / GER Sub]
  • Lucasfilm | Артбук по мультфильму Звёздные войны: Войны клонов / The Art of Star Wars: The Clone Wars (2009) [CBR] [EN]
  • Звёздные войны. Эпизод 5: Империя наносит ответный удар / Star Wars: Episode V - The Empire Strikes Back / Despecialized Edition Theatrical reconstruction HD (1980) BDRip скачать через торрент бесплатно
  • Звёздные войны: Повстанцы / Star Wars: Rebels (2014) WEB-DLRip (Сезон 1, Серий 3 из 16) (LostFilm)
  • Финес и Ферб. Звёздные войны / Phineas and Ferb: Star Wars (2014) WEB-DLRip (ЛанселаП) скачать через торрент бесплатно
  • Звёздные войны: Повстанцы / Star Wars: Rebels (2014) WEB-DLRip [1080p] (Сезон 1, серий 8 из 16) (LostFilm) скачать через торрент бесплатно
  • Звёздные войны: Повстанцы / Star Wars: Rebels (2014) WEB-DLRip (Сезон 1, серий 7 из 16) (Невафильм) (обновляемая)


    • Комментарии (0):

      Информация

      Информация

        Посетители, находящиеся в группе Гости, не могут оставлять комментарии в данной новости.

        ↓ Меню




        Популярное

        Роботы-пожарные / Fire Robo (2016) WEB-DLRip [H.264 / 720p-LQ] (сезон 1, серии 1-26 из 26) [Обновляемая]

        (скачиваний: 6)
        Лея Уотерс | Переключение на силу. Как научиться видеть в детях сильные стороны, чтобы помочь им расцвести (2019) [EPUB]

        (скачиваний: 5)
        Жила-была царевна (2015-2019) WEB-DLRip [H.264 / 720p-LQ] (сезон 1, серии 1-18 из 26) [Обновляемая]

        (скачиваний: 5)
        Сергей Матвеев | Полный курс английского языка для лентяев (2016) [PDF]

        (скачиваний: 5)
        Алексей Марков | Хулиганская экономика. Финансовые рынки для хулиганов и их родителей (2019) [EPUB]

        (скачиваний: 4)
        Металионы / Metalions (2018-2019) WEB-DLRip [H.264 / 720p-LQ] (сезон 1, серии 1-52 из 52) [Обновляемая]

        (скачиваний: 4)
        Александр Нилл | Воспитание свободой. Школа Саммерхилл (2020) [EPUB]

        (скачиваний: 4)
        Серия книг | Образовательная манга (2010 - 2015) [PDF]

        (скачиваний: 4)
        Мариэтта Чудакова | Рассказы про Россию. 1861—1922 (2020) [EPUB]

        (скачиваний: 3)
        Gekijouban KanColle | Kantai Collection Movie | Fleet Girls Collection: Movie Sequence| Коллекционная флотилия на большом экране [2016, Movie] BDrip 720p 10bit raw

        (скачиваний: 3)