ВАЖНО! Сайт скоро заблокируют! Подписывайся на наш канал в Telegram https://t.me/torrentok и получи доступ к торрентам без ограничений!
.
Авторизация | Регистрация
bitok.xyz
Торрент скачать бесплатно Мультфильмы торрент скачать Soul Eater Not! | Пожиратель Душ! Класс НОТ! [2014, TV, 12 ep] BDRip 1080p 10-bit raw+rus торрент скачать бесплатно


    Soul Eater Not! | Пожиратель Душ! Класс НОТ! [2014, TV, 12 ep] BDRip 1080p 10-bit raw+rus торрент скачать бесплатно

    Дата: 29-02-2020, 05:00 | .torrent скачали: 0

    Soul Eater Not! | Пожиратель Душ! Класс НОТ! [2014, TV, 12 ep] BDRip 1080p 10-bit raw+rusТип: TV
    Жанр: Приключения, Комедия
    Продолжительность: 12 Эпизодов по 23 Мин
    Количество серий: 12 Эпизодов
    Дата выпуска: c09.04.2014 по02.07.2014
    Автор оригинала: Окубо Ацуси
    Режиссер: Хасимото Масакадзу
    Производство: Bones/ Япония

    World-Art |AniDB |MyAnimelist |Shikimori

    Описание

    Это другая история, берущая начало раньше, чем оригинал. Здесь Сид — по-прежнему человек, Кид еще не поступил в академию, а Медуза работает медсестрой. Главная героиня — оружие Цугуми — еще ни разу не принимала форму оружия. Она встречает двух мастеров — Аню и Мэмэ, и вместе они попадают в класс НОТ, чтобы научиться контролировать свои силы и работать в команде.
    Автор: Simon, Fukkatsumi ©Shikimori
    Качество Видео: BDRip
    Видео: AVC/x264 , 1920x1080, 23.976 fps, 5 455 kb/s, 0.110 bpp10-bit
    Язык Озвучки: Японский и Русский
    Озвучка: Двухголосая, Многоголосая закадровая
    Аудио №1: AC32.0 , 48.0 kHz, 192 kb/s(AniDub) |Язык:
    Аудио №2: AC32.0 , 48.0 kHz, 192 kb/s(Shiza Project) |Язык:
    Аудио №3: AC32.0 , 48.0 kHz, 192 kb/s(AniLibria) |Язык:
    Аудио №4: FLAC2.0 , 48.0 kHz, 690 kb/s 16-Bit(Original) |Язык:
    Субтитры: Надписи/ Полные(Esito Klimena)

    Скриншоты для ознакомления





    01. Enrolling at DWMA! (Поступление в Шибусен!)
    02. Girls Dorms a la Carte! (Девичья общага)
    03. The Witch of the Girls` Dorm! (Ведьма женского общежития!)
    04. Waver, Run! (Сомнения оружия!)
    05. Invitation Fighting! (Приглашаю побороться!)
    06. This Is a Real Fight! (Это же реальный бой!)
    07. Nice Day for a Death Bazaar! (Отличный день для Дез базара!)
    08. Tsugumi Spiral! (Цугуми закрутилась!)
    09. Pumpkin Growing! (Тыквы растут!)
    10. The Beginning of the Nightmare! (Начало кошмара!)
    11. Their Various Resolves! (Такие разные характеры!)
    12. Soul Resonance! (Резонанс душ)

    1) Soul Eater
    2) Soul Eater Not!(Эта Раздача)


    General
    Unique ID : 246940792692971646031039404017044045834 (0xB9C71114280681B58D11BB927E7E400A)
    Complete name : J: АнимеПожиратель Душ! Клвсс НОТ! (Soul Eater Not!) BDRip (2014)1. Enrolling at DWMA!.mkv
    Format : Matroska
    Format version : Version 4
    File size : 1.13 GiB
    Duration : 23 min 56 s
    Overall bit rate mode : Variable
    Overall bit rate : 6 726 kb/s
    Encoded date : UTC 2020-02-20 21: 35: 53
    Writing application : mkvmerge v43.0.0 (\'The Quartermaster\') 64-bit
    Writing library : libebml v1.3.10 + libmatroska v1.5.2
    Video
    ID : 1
    Format : AVC
    Format/Info : Advanced Video Codec
    Format profile : High 10@L5
    Format settings : CABAC/5 Ref Frames
    Format settings, CABAC : Yes
    Format settings, Reference : 5 frames
    Codec ID : V_MPEG4/ISO/AVC
    Duration : 23 min 56 s
    Bit rate : 5 455 kb/s
    Width : 1 920 pixels
    Height : 1 080 pixels
    Display aspect ratio : 16: 9
    Frame rate mode : Constant
    Frame rate : 23.976 (24000/1001) FPS
    Color space : YUV
    Chroma subsampling : 4: 2: 0
    Bit depth : 10 bits
    Scan type : Progressive
    Bits/(Pixel*Frame) : 0.110
    Stream size : 934 MiB (81%)
    Title : Soul Eater Not! ep.01 Enrolling at DWMA!
    Writing library : x264 core 146 r2538 121396c
    Encoding settings : cabac=1/ref=5/deblock=1: -3: -3/analyse=0x3: 0x113/me=umh/subme=9/psy=1/psy_rd=0.95: 0.00/mixed_ref=1/me_range=32/chroma_me=1/trellis=2/8x8dct=1/cqm=0/deadzone=21, 11/fast_pskip=1/chroma_qp_offset=-2/threads=12/lookahead_threads=2/sliced_threads=0/nr=0/decimate=1/interlaced=0/bluray_compat=0/constrained_intra=0/bframes=7/b_pyramid=2/b_adapt=2/b_bias=0/direct=1/weightb=1/open_gop=0/weightp=2/keyint=240/keyint_min=23/scenecut=40/intra_refresh=0/rc=crf/mbtree=0/crf=15.5/qcomp=0.75/qpmin=0/qpmax=81/qpstep=4/ip_ratio=1.40/pb_ratio=1.30/aq=1: 0.95
    Language : Japanese
    Default : Yes
    Forced : No
    Color range : Limited
    Color primaries : BT.709
    Transfer characteristics : BT.709
    Matrix coefficients : BT.709
    Audio #1
    ID : 2
    Format : AC-3
    Format/Info : Audio Coding 3
    Commercial name : Dolby Digital
    Codec ID : A_AC3
    Duration : 23 min 56 s
    Bit rate mode : Constant
    Bit rate : 192 kb/s
    Channel(s) : 2 channels
    Channel layout : L R
    Sampling rate : 48.0 kHz
    Frame rate : 31.250 FPS (1536 SPF)
    Compression mode : Lossy
    Stream size : 32.9 MiB (3%)
    Title : AniDub
    Language : Russian
    Service kind : Complete Main
    Default : Yes
    Forced : No
    Audio #2
    ID : 3
    Format : AC-3
    Format/Info : Audio Coding 3
    Commercial name : Dolby Digital
    Codec ID : A_AC3
    Duration : 23 min 56 s
    Bit rate mode : Constant
    Bit rate : 192 kb/s
    Channel(s) : 2 channels
    Channel layout : L R
    Sampling rate : 48.0 kHz
    Frame rate : 31.250 FPS (1536 SPF)
    Compression mode : Lossy
    Stream size : 32.9 MiB (3%)
    Title : AniLibria
    Language : Russian
    Service kind : Complete Main
    Default : No
    Forced : No
    Audio #3
    ID : 4
    Format : AC-3
    Format/Info : Audio Coding 3
    Commercial name : Dolby Digital
    Codec ID : A_AC3
    Duration : 23 min 56 s
    Bit rate mode : Constant
    Bit rate : 192 kb/s
    Channel(s) : 2 channels
    Channel layout : L R
    Sampling rate : 48.0 kHz
    Frame rate : 31.250 FPS (1536 SPF)
    Compression mode : Lossy
    Stream size : 32.9 MiB (3%)
    Title : Shiza Project
    Language : Russian
    Service kind : Complete Main
    Default : No
    Forced : No
    Audio #4
    ID : 5
    Format : FLAC
    Format/Info : Free Lossless Audio Codec
    Codec ID : A_FLAC
    Duration : 23 min 56 s
    Bit rate mode : Variable
    Bit rate : 690 kb/s
    Channel(s) : 2 channels
    Channel layout : L R
    Sampling rate : 48.0 kHz
    Frame rate : 11.719 FPS (4096 SPF)
    Bit depth : 16 bits
    Compression mode : Lossless
    Stream size : 118 MiB (10%)
    Title : Original
    Writing library : libFLAC 20080709 (UTC 2008-07-09)
    Language : Japanese
    Default : No
    Forced : No
    Text #1
    ID : 6
    Format : ASS
    Codec ID : S_TEXT/ASS
    Codec ID/Info : Advanced Sub Station Alpha
    Duration : 23 min 54 s
    Bit rate : 1 065 b/s
    Count of elements : 850
    Compression mode : Lossless
    Stream size : 187 KiB (0%)
    Title : Forced (Esito Klimena)
    Language : Russian
    Default : Yes
    Forced : No
    Text #2
    ID : 7
    Format : ASS
    Codec ID : S_TEXT/ASS
    Codec ID/Info : Advanced Sub Station Alpha
    Duration : 23 min 54 s
    Bit rate : 1 201 b/s
    Count of elements : 1200
    Compression mode : Lossless
    Stream size : 210 KiB (0%)
    Title : Full (Esito Klimena)
    Language : Russian
    Default : No
    Forced : No
    Menu
    00: 00: 00.000 : : intro
    00: 01: 46.022 : : OP
    00: 03: 15.987 : : part A
    00: 08: 52.990 : : part B
    00: 22: 10.996 : : ED
    00: 23: 40.961 : : preview



    General
    Unique ID : 271960500478991435064997201354809813002 (0xCC99AFE979B81C943714EC0CDCDA280A)
    Complete name : J: АнимеПожиратель Душ! Клвсс НОТ! (Soul Eater Not!) BDRip (2014)2. Girls Dorms a la Carte!.mkv
    Format : Matroska
    Format version : Version 4
    File size : 1.07 GiB
    Duration : 23 min 56 s
    Overall bit rate mode : Variable
    Overall bit rate : 6 385 kb/s
    Encoded date : UTC 2020-02-20 21: 37: 10
    Writing application : mkvmerge v43.0.0 (\'The Quartermaster\') 64-bit
    Writing library : libebml v1.3.10 + libmatroska v1.5.2
    Video
    ID : 1
    Format : AVC
    Format/Info : Advanced Video Codec
    Format profile : High 10@L5
    Format settings : CABAC/5 Ref Frames
    Format settings, CABAC : Yes
    Format settings, Reference : 5 frames
    Codec ID : V_MPEG4/ISO/AVC
    Duration : 23 min 56 s
    Bit rate : 5 130 kb/s
    Width : 1 920 pixels
    Height : 1 080 pixels
    Display aspect ratio : 16: 9
    Frame rate mode : Constant
    Frame rate : 23.976 (24000/1001) FPS
    Color space : YUV
    Chroma subsampling : 4: 2: 0
    Bit depth : 10 bits
    Scan type : Progressive
    Bits/(Pixel*Frame) : 0.103
    Stream size : 878 MiB (80%)
    Title : Soul Eater Not! ep.02 Girls` Dorms a la Carte!
    Writing library : x264 core 146 r2538 121396c
    Encoding settings : cabac=1/ref=5/deblock=1: -3: -3/analyse=0x3: 0x113/me=umh/subme=9/psy=1/psy_rd=0.95: 0.00/mixed_ref=1/me_range=32/chroma_me=1/trellis=2/8x8dct=1/cqm=0/deadzone=21, 11/fast_pskip=1/chroma_qp_offset=-2/threads=12/lookahead_threads=2/sliced_threads=0/nr=0/decimate=1/interlaced=0/bluray_compat=0/constrained_intra=0/bframes=7/b_pyramid=2/b_adapt=2/b_bias=0/direct=1/weightb=1/open_gop=0/weightp=2/keyint=240/keyint_min=23/scenecut=40/intra_refresh=0/rc=crf/mbtree=0/crf=15.5/qcomp=0.75/qpmin=0/qpmax=81/qpstep=4/ip_ratio=1.40/pb_ratio=1.30/aq=1: 0.95
    Language : Japanese
    Default : Yes
    Forced : No
    Color range : Limited
    Color primaries : BT.709
    Transfer characteristics : BT.709
    Matrix coefficients : BT.709
    Audio #1
    ID : 2
    Format : AC-3
    Format/Info : Audio Coding 3
    Commercial name : Dolby Digital
    Codec ID : A_AC3
    Duration : 23 min 56 s
    Bit rate mode : Constant
    Bit rate : 192 kb/s
    Channel(s) : 2 channels
    Channel layout : L R
    Sampling rate : 48.0 kHz
    Frame rate : 31.250 FPS (1536 SPF)
    Compression mode : Lossy
    Stream size : 32.9 MiB (3%)
    Title : AniDub
    Language : Russian
    Service kind : Complete Main
    Default : Yes
    Forced : No
    Audio #2
    ID : 3
    Format : AC-3
    Format/Info : Audio Coding 3
    Commercial name : Dolby Digital
    Codec ID : A_AC3
    Duration : 23 min 56 s
    Bit rate mode : Constant
    Bit rate : 192 kb/s
    Channel(s) : 2 channels
    Channel layout : L R
    Sampling rate : 48.0 kHz
    Frame rate : 31.250 FPS (1536 SPF)
    Compression mode : Lossy
    Stream size : 32.9 MiB (3%)
    Title : AniLibria
    Language : Russian
    Service kind : Complete Main
    Default : No
    Forced : No
    Audio #3
    ID : 4
    Format : AC-3
    Format/Info : Audio Coding 3
    Commercial name : Dolby Digital
    Codec ID : A_AC3
    Duration : 23 min 56 s
    Bit rate mode : Constant
    Bit rate : 192 kb/s
    Channel(s) : 2 channels
    Channel layout : L R
    Sampling rate : 48.0 kHz
    Frame rate : 31.250 FPS (1536 SPF)
    Compression mode : Lossy
    Stream size : 32.9 MiB (3%)
    Title : Shiza Project
    Language : Russian
    Service kind : Complete Main
    Default : No
    Forced : No
    Audio #4
    ID : 5
    Format : FLAC
    Format/Info : Free Lossless Audio Codec
    Codec ID : A_FLAC
    Duration : 23 min 56 s
    Bit rate mode : Variable
    Bit rate : 674 kb/s
    Channel(s) : 2 channels
    Channel layout : L R
    Sampling rate : 48.0 kHz
    Frame rate : 11.719 FPS (4096 SPF)
    Bit depth : 16 bits
    Compression mode : Lossless
    Stream size : 115 MiB (11%)
    Title : Original
    Writing library : libFLAC 20080709 (UTC 2008-07-09)
    Language : Japanese
    Default : No
    Forced : No
    Text #1
    ID : 6
    Format : ASS
    Codec ID : S_TEXT/ASS
    Codec ID/Info : Advanced Sub Station Alpha
    Duration : 23 min 55 s
    Bit rate : 1 055 b/s
    Count of elements : 864
    Compression mode : Lossless
    Stream size : 185 KiB (0%)
    Title : Forced (Esito Klimena)
    Language : Russian
    Default : Yes
    Forced : No
    Text #2
    ID : 7
    Format : ASS
    Codec ID : S_TEXT/ASS
    Codec ID/Info : Advanced Sub Station Alpha
    Duration : 23 min 55 s
    Bit rate : 1 197 b/s
    Count of elements : 1190
    Compression mode : Lossless
    Stream size : 210 KiB (0%)
    Title : Full (Esito Klimena)
    Language : Russian
    Default : No
    Forced : No
    Menu
    00: 00: 00.000 : : intro
    00: 01: 19.996 : : OP
    00: 02: 50.045 : : part A
    00: 11: 41.033 : : part B
    00: 22: 10.078 : : ED
    00: 23: 40.043 : : preview



    General
    Unique ID : 285677687861885996625213147338290442768 (0xD6EB85772BB77F6591B56F0B66433210)
    Complete name : J: АнимеПожиратель Душ! Клвсс НОТ! (Soul Eater Not!) BDRip (2014)3. The Witch of the Girls` Dorm!.mkv
    Format : Matroska
    Format version : Version 4
    File size : 1.08 GiB
    Duration : 23 min 57 s
    Overall bit rate mode : Variable
    Overall bit rate : 6 484 kb/s
    Encoded date : UTC 2020-02-20 21: 38: 27
    Writing application : mkvmerge v43.0.0 (\'The Quartermaster\') 64-bit
    Writing library : libebml v1.3.10 + libmatroska v1.5.2
    Video
    ID : 1
    Format : AVC
    Format/Info : Advanced Video Codec
    Format profile : High 10@L5
    Format settings : CABAC/5 Ref Frames
    Format settings, CABAC : Yes
    Format settings, Reference : 5 frames
    Codec ID : V_MPEG4/ISO/AVC
    Duration : 23 min 57 s
    Bit rate : 5 244 kb/s
    Width : 1 920 pixels
    Height : 1 080 pixels
    Display aspect ratio : 16: 9
    Frame rate mode : Constant
    Frame rate : 23.976 (24000/1001) FPS
    Color space : YUV
    Chroma subsampling : 4: 2: 0
    Bit depth : 10 bits
    Scan type : Progressive
    Bits/(Pixel*Frame) : 0.105
    Stream size : 898 MiB (81%)
    Title : Soul Eater Not! ep.03 The Witch of the Girls` Dorm!
    Writing library : x264 core 146 r2538 121396c
    Encoding settings : cabac=1/ref=5/deblock=1: -3: -3/analyse=0x3: 0x113/me=umh/subme=9/psy=1/psy_rd=0.95: 0.00/mixed_ref=1/me_range=32/chroma_me=1/trellis=2/8x8dct=1/cqm=0/deadzone=21, 11/fast_pskip=1/chroma_qp_offset=-2/threads=12/lookahead_threads=2/sliced_threads=0/nr=0/decimate=1/interlaced=0/bluray_compat=0/constrained_intra=0/bframes=7/b_pyramid=2/b_adapt=2/b_bias=0/direct=1/weightb=1/open_gop=0/weightp=2/keyint=240/keyint_min=23/scenecut=40/intra_refresh=0/rc=crf/mbtree=0/crf=15.5/qcomp=0.75/qpmin=0/qpmax=81/qpstep=4/ip_ratio=1.40/pb_ratio=1.30/aq=1: 0.95
    Language : Japanese
    Default : Yes
    Forced : No
    Color range : Limited
    Color primaries : BT.709
    Transfer characteristics : BT.709
    Matrix coefficients : BT.709
    Audio #1
    ID : 2
    Format : AC-3
    Format/Info : Audio Coding 3
    Commercial name : Dolby Digital
    Codec ID : A_AC3
    Duration : 23 min 57 s
    Bit rate mode : Constant
    Bit rate : 192 kb/s
    Channel(s) : 2 channels
    Channel layout : L R
    Sampling rate : 48.0 kHz
    Frame rate : 31.250 FPS (1536 SPF)
    Compression mode : Lossy
    Stream size : 32.9 MiB (3%)
    Title : AniDub
    Language : Russian
    Service kind : Complete Main
    Default : Yes
    Forced : No
    Audio #2
    ID : 3
    Format : AC-3
    Format/Info : Audio Coding 3
    Commercial name : Dolby Digital
    Codec ID : A_AC3
    Duration : 23 min 57 s
    Bit rate mode : Constant
    Bit rate : 192 kb/s
    Channel(s) : 2 channels
    Channel layout : L R
    Sampling rate : 48.0 kHz
    Frame rate : 31.250 FPS (1536 SPF)
    Compression mode : Lossy
    Stream size : 32.9 MiB (3%)
    Title : AniLibria
    Language : Russian
    Service kind : Complete Main
    Default : No
    Forced : No
    Audio #3
    ID : 4
    Format : AC-3
    Format/Info : Audio Coding 3
    Commercial name : Dolby Digital
    Codec ID : A_AC3
    Duration : 23 min 57 s
    Bit rate mode : Constant
    Bit rate : 192 kb/s
    Channel(s) : 2 channels
    Channel layout : L R
    Sampling rate : 48.0 kHz
    Frame rate : 31.250 FPS (1536 SPF)
    Compression mode : Lossy
    Stream size : 32.9 MiB (3%)
    Title : Shiza Project
    Language : Russian
    Service kind : Complete Main
    Default : No
    Forced : No
    Audio #4
    ID : 5
    Format : FLAC
    Format/Info : Free Lossless Audio Codec
    Codec ID : A_FLAC
    Duration : 23 min 57 s
    Bit rate mode : Variable
    Bit rate : 658 kb/s
    Channel(s) : 2 channels
    Channel layout : L R
    Sampling rate : 48.0 kHz
    Frame rate : 11.719 FPS (4096 SPF)
    Bit depth : 16 bits
    Compression mode : Lossless
    Stream size : 113 MiB (10%)
    Title : Original
    Writing library : libFLAC 20080709 (UTC 2008-07-09)
    Language : Japanese
    Default : No
    Forced : No
    Text #1
    ID : 6
    Format : ASS
    Codec ID : S_TEXT/ASS
    Codec ID/Info : Advanced Sub Station Alpha
    Duration : 23 min 55 s
    Bit rate : 1 243 b/s
    Count of elements : 1209
    Compression mode : Lossless
    Stream size : 218 KiB (0%)
    Title : Forced (Esito Klimena)
    Language : Russian
    Default : Yes
    Forced : No
    Text #2
    ID : 7
    Format : ASS
    Codec ID : S_TEXT/ASS
    Codec ID/Info : Advanced Sub Station Alpha
    Duration : 23 min 55 s
    Bit rate : 1 402 b/s
    Count of elements : 1595
    Compression mode : Lossless
    Stream size : 246 KiB (0%)
    Title : Full (Esito Klimena)
    Language : Russian
    Default : No
    Forced : No
    Menu
    00: 00: 00.000 : : intro
    00: 00: 37.037 : : OP
    00: 02: 07.001 : : part A
    00: 13: 51.038 : : part B
    00: 22: 11.079 : : ED
    00: 23: 41.044 : : preview



    General
    Unique ID : 83540477678234596437976424633185011183 (0x3ED94F8D8066A0F1C62841A3B72305EF)
    Complete name : J: АнимеПожиратель Душ! Клвсс НОТ! (Soul Eater Not!) BDRip (2014)4. Waver, Run!.mkv
    Format : Matroska
    Format version : Version 4
    File size : 994 MiB
    Duration : 23 min 56 s
    Overall bit rate mode : Variable
    Overall bit rate : 5 809 kb/s
    Encoded date : UTC 2020-02-20 21: 39: 18
    Writing application : mkvmerge v43.0.0 (\'The Quartermaster\') 64-bit
    Writing library : libebml v1.3.10 + libmatroska v1.5.2
    Video
    ID : 1
    Format : AVC
    Format/Info : Advanced Video Codec
    Format profile : High 10@L5
    Format settings : CABAC/5 Ref Frames
    Format settings, CABAC : Yes
    Format settings, Reference : 5 frames
    Codec ID : V_MPEG4/ISO/AVC
    Duration : 23 min 56 s
    Bit rate : 4 567 kb/s
    Width : 1 920 pixels
    Height : 1 080 pixels
    Display aspect ratio : 16: 9
    Frame rate mode : Constant
    Frame rate : 23.976 (24000/1001) FPS
    Color space : YUV
    Chroma subsampling : 4: 2: 0
    Bit depth : 10 bits
    Scan type : Progressive
    Bits/(Pixel*Frame) : 0.092
    Stream size : 782 MiB (79%)
    Title : Soul Eater Not! ep.04 Waver, Run!
    Writing library : x264 core 146 r2538 121396c
    Encoding settings : cabac=1/ref=5/deblock=1: -3: -3/analyse=0x3: 0x113/me=umh/subme=9/psy=1/psy_rd=0.95: 0.00/mixed_ref=1/me_range=32/chroma_me=1/trellis=2/8x8dct=1/cqm=0/deadzone=21, 11/fast_pskip=1/chroma_qp_offset=-2/threads=12/lookahead_threads=2/sliced_threads=0/nr=0/decimate=1/interlaced=0/bluray_compat=0/constrained_intra=0/bframes=7/b_pyramid=2/b_adapt=2/b_bias=0/direct=1/weightb=1/open_gop=0/weightp=2/keyint=240/keyint_min=23/scenecut=40/intra_refresh=0/rc=crf/mbtree=0/crf=15.8/qcomp=0.75/qpmin=0/qpmax=81/qpstep=4/ip_ratio=1.40/pb_ratio=1.30/aq=1: 0.95
    Language : Japanese
    Default : Yes
    Forced : No
    Color range : Limited
    Color primaries : BT.709
    Transfer characteristics : BT.709
    Matrix coefficients : BT.709
    Audio #1
    ID : 2
    Format : AC-3
    Format/Info : Audio Coding 3
    Commercial name : Dolby Digital
    Codec ID : A_AC3
    Duration : 23 min 56 s
    Bit rate mode : Constant
    Bit rate : 192 kb/s
    Channel(s) : 2 channels
    Channel layout : L R
    Sampling rate : 48.0 kHz
    Frame rate : 31.250 FPS (1536 SPF)
    Compression mode : Lossy
    Stream size : 32.9 MiB (3%)
    Title : AniDub
    Language : Russian
    Service kind : Complete Main
    Default : Yes
    Forced : No
    Audio #2
    ID : 3
    Format : AC-3
    Format/Info : Audio Coding 3
    Commercial name : Dolby Digital
    Codec ID : A_AC3
    Duration : 23 min 56 s
    Bit rate mode : Constant
    Bit rate : 192 kb/s
    Channel(s) : 2 channels
    Channel layout : L R
    Sampling rate : 48.0 kHz
    Frame rate : 31.250 FPS (1536 SPF)
    Compression mode : Lossy
    Stream size : 32.9 MiB (3%)
    Title : AniLibria
    Language : Russian
    Service kind : Complete Main
    Default : No
    Forced : No
    Audio #3
    ID : 4
    Format : AC-3
    Format/Info : Audio Coding 3
    Commercial name : Dolby Digital
    Codec ID : A_AC3
    Duration : 23 min 56 s
    Bit rate mode : Constant
    Bit rate : 192 kb/s
    Channel(s) : 2 channels
    Channel layout : L R
    Sampling rate : 48.0 kHz
    Frame rate : 31.250 FPS (1536 SPF)
    Compression mode : Lossy
    Stream size : 32.9 MiB (3%)
    Title : Shiza Project
    Language : Russian
    Service kind : Complete Main
    Default : No
    Forced : No
    Audio #4
    ID : 5
    Format : FLAC
    Format/Info : Free Lossless Audio Codec
    Codec ID : A_FLAC
    Duration : 23 min 56 s
    Bit rate mode : Variable
    Bit rate : 660 kb/s
    Channel(s) : 2 channels
    Channel layout : L R
    Sampling rate : 48.0 kHz
    Frame rate : 11.719 FPS (4096 SPF)
    Bit depth : 16 bits
    Compression mode : Lossless
    Stream size : 113 MiB (11%)
    Title : Original
    Writing library : libFLAC 20080709 (UTC 2008-07-09)
    Language : Japanese
    Default : No
    Forced : No
    Text #1
    ID : 6
    Format : ASS
    Codec ID : S_TEXT/ASS
    Codec ID/Info : Advanced Sub Station Alpha
    Duration : 23 min 54 s
    Bit rate : 1 032 b/s
    Count of elements : 811
    Compression mode : Lossless
    Stream size : 181 KiB (0%)
    Title : Forced (Esito Klimena)
    Language : Russian
    Default : Yes
    Forced : No
    Text #2
    ID : 7
    Format : ASS
    Codec ID : S_TEXT/ASS
    Codec ID/Info : Advanced Sub Station Alpha
    Duration : 23 min 54 s
    Bit rate : 1 185 b/s
    Count of elements : 1179
    Compression mode : Lossless
    Stream size : 208 KiB (0%)
    Title : Full (Esito Klimena)
    Language : Russian
    Default : No
    Forced : No
    Menu
    00: 00: 00.000 : : intro
    00: 02: 45.040 : : OP
    00: 04: 15.005 : : part A
    00: 12: 38.049 : : part B
    00: 22: 10.079 : : ED
    00: 23: 40.044 : : preview



    General
    Unique ID : 191690089356264868182335447128570250170 (0x90362B16956BC8BB6AAA44179AF2C3BA)
    Complete name : J: АнимеПожиратель Душ! Клвсс НОТ! (Soul Eater Not!) BDRip (2014)5. Invitation Fighting!.mkv
    Format : Matroska
    Format version : Version 4
    File size : 1.06 GiB
    Duration : 23 min 57 s
    Overall bit rate mode : Variable
    Overall bit rate : 6 345 kb/s
    Encoded date : UTC 2020-02-20 21: 40: 05
    Writing application : mkvmerge v43.0.0 (\'The Quartermaster\') 64-bit
    Writing library : libebml v1.3.10 + libmatroska v1.5.2
    Video
    ID : 1
    Format : AVC
    Format/Info : Advanced Video Codec
    Format profile : High 10@L5
    Format settings : CABAC/5 Ref Frames
    Format settings, CABAC : Yes
    Format settings, Reference : 5 frames
    Codec ID : V_MPEG4/ISO/AVC
    Duration : 23 min 57 s
    Bit rate : 5 084 kb/s
    Width : 1 920 pixels
    Height : 1 080 pixels
    Display aspect ratio : 16: 9
    Frame rate mode : Constant
    Frame rate : 23.976 (24000/1001) FPS
    Color space : YUV
    Chroma subsampling : 4: 2: 0
    Bit depth : 10 bits
    Scan type : Progressive
    Bits/(Pixel*Frame) : 0.102
    Stream size : 871 MiB (80%)
    Title : Soul Eater Not! ep.05 Invitation Fighting!
    Writing library : x264 core 148 r2579 73ae2d1
    Encoding settings : cabac=1/ref=5/deblock=1: -3: -3/analyse=0x3: 0x113/me=umh/subme=9/psy=1/psy_rd=0.95: 0.00/mixed_ref=1/me_range=32/chroma_me=1/trellis=2/8x8dct=1/cqm=0/deadzone=21, 11/fast_pskip=1/chroma_qp_offset=-2/threads=12/lookahead_threads=2/sliced_threads=0/nr=0/decimate=1/interlaced=0/bluray_compat=0/constrained_intra=0/bframes=7/b_pyramid=2/b_adapt=2/b_bias=0/direct=1/weightb=1/open_gop=0/weightp=2/keyint=240/keyint_min=23/scenecut=40/intra_refresh=0/rc=crf/mbtree=0/crf=15.5/qcomp=0.75/qpmin=0/qpmax=81/qpstep=4/ip_ratio=1.40/pb_ratio=1.30/aq=1: 0.95
    Language : Japanese
    Default : Yes
    Forced : No
    Color range : Limited
    Color primaries : BT.709
    Transfer characteristics : BT.709
    Matrix coefficients : BT.709
    Audio #1
    ID : 2
    Format : AC-3
    Format/Info : Audio Coding 3
    Commercial name : Dolby Digital
    Codec ID : A_AC3
    Duration : 23 min 57 s
    Bit rate mode : Constant
    Bit rate : 192 kb/s
    Channel(s) : 2 channels
    Channel layout : L R
    Sampling rate : 48.0 kHz
    Frame rate : 31.250 FPS (1536 SPF)
    Compression mode : Lossy
    Stream size : 32.9 MiB (3%)
    Title : AniDub
    Language : Russian
    Service kind : Complete Main
    Default : Yes
    Forced : No
    Audio #2
    ID : 3
    Format : AC-3
    Format/Info : Audio Coding 3
    Commercial name : Dolby Digital
    Codec ID : A_AC3
    Duration : 23 min 57 s
    Bit rate mode : Constant
    Bit rate : 192 kb/s
    Channel(s) : 2 channels
    Channel layout : L R
    Sampling rate : 48.0 kHz
    Frame rate : 31.250 FPS (1536 SPF)
    Compression mode : Lossy
    Stream size : 32.9 MiB (3%)
    Title : AniLibria
    Language : Russian
    Service kind : Complete Main
    Default : No
    Forced : No
    Audio #3
    ID : 4
    Format : AC-3
    Format/Info : Audio Coding 3
    Commercial name : Dolby Digital
    Codec ID : A_AC3
    Duration : 23 min 57 s
    Bit rate mode : Constant
    Bit rate : 192 kb/s
    Channel(s) : 2 channels
    Channel layout : L R
    Sampling rate : 48.0 kHz
    Frame rate : 31.250 FPS (1536 SPF)
    Compression mode : Lossy
    Stream size : 32.9 MiB (3%)
    Title : Shiza Project
    Language : Russian
    Service kind : Complete Main
    Default : No
    Forced : No
    Audio #4
    ID : 5
    Format : FLAC
    Format/Info : Free Lossless Audio Codec
    Codec ID : A_FLAC
    Duration : 23 min 57 s
    Bit rate mode : Variable
    Bit rate : 680 kb/s
    Channel(s) : 2 channels
    Channel layout : L R
    Sampling rate : 48.0 kHz
    Frame rate : 11.719 FPS (4096 SPF)
    Bit depth : 16 bits
    Compression mode : Lossless
    Stream size : 116 MiB (11%)
    Title : Original
    Writing library : libFLAC 20080709 (UTC 2008-07-09)
    Language : Japanese
    Default : No
    Forced : No
    Text #1
    ID : 6
    Format : ASS
    Codec ID : S_TEXT/ASS
    Codec ID/Info : Advanced Sub Station Alpha
    Duration : 23 min 55 s
    Bit rate : 1 033 b/s
    Count of elements : 814
    Compression mode : Lossless
    Stream size : 181 KiB (0%)
    Title : Forced (Esito Klimena)
    Language : Russian
    Default : Yes
    Forced : No
    Text #2
    ID : 7
    Format : ASS
    Codec ID : S_TEXT/ASS
    Codec ID/Info : Advanced Sub Station Alpha
    Duration : 23 min 55 s
    Bit rate : 1 190 b/s
    Count of elements : 1196
    Compression mode : Lossless
    Stream size : 209 KiB (0%)
    Title : Full (Esito Klimena)
    Language : Russian
    Default : No
    Forced : No
    Menu
    00: 00: 00.000 : : intro
    00: 01: 30.006 : : OP
    00: 03: 00.054 : : part A
    00: 09: 32.113 : : part B
    00: 22: 11.163 : : ED
    00: 23: 41.128 : : preview



    General
    Unique ID : 3617808724389563938609458745110920916 (0x2B8C3BDD8043F46AC3A18E59ADF7ED4)
    Complete name : J: АнимеПожиратель Душ! Клвсс НОТ! (Soul Eater Not!) BDRip (2014)6. This Is a Real Fight!.mkv
    Format : Matroska
    Format version : Version 4
    File size : 1.08 GiB
    Duration : 23 min 56 s
    Overall bit rate mode : Variable
    Overall bit rate : 6 431 kb/s
    Encoded date : UTC 2020-02-20 21: 41: 00
    Writing application : mkvmerge v43.0.0 (\'The Quartermaster\') 64-bit
    Writing library : libebml v1.3.10 + libmatroska v1.5.2
    Video
    ID : 1
    Format : AVC
    Format/Info : Advanced Video Codec
    Format profile : High 10@L5
    Format settings : CABAC/5 Ref Frames
    Format settings, CABAC : Yes
    Format settings, Reference : 5 frames
    Codec ID : V_MPEG4/ISO/AVC
    Duration : 23 min 56 s
    Bit rate : 5 159 kb/s
    Width : 1 920 pixels
    Height : 1 080 pixels
    Display aspect ratio : 16: 9
    Frame rate mode : Constant
    Frame rate : 23.976 (24000/1001) FPS
    Color space : YUV
    Chroma subsampling : 4: 2: 0
    Bit depth : 10 bits
    Scan type : Progressive
    Bits/(Pixel*Frame) : 0.104
    Stream size : 883 MiB (80%)
    Title : Soul Eater Not! ep.06 This Is a Real Fight!
    Writing library : x264 core 148 r2579 73ae2d1
    Encoding settings : cabac=1/ref=5/deblock=1: -3: -3/analyse=0x3: 0x113/me=umh/subme=9/psy=1/psy_rd=0.95: 0.00/mixed_ref=1/me_range=32/chroma_me=1/trellis=2/8x8dct=1/cqm=0/deadzone=21, 11/fast_pskip=1/chroma_qp_offset=-2/threads=12/lookahead_threads=2/sliced_threads=0/nr=0/decimate=1/interlaced=0/bluray_compat=0/constrained_intra=0/bframes=7/b_pyramid=2/b_adapt=2/b_bias=0/direct=1/weightb=1/open_gop=0/weightp=2/keyint=240/keyint_min=23/scenecut=40/intra_refresh=0/rc=crf/mbtree=0/crf=15.5/qcomp=0.75/qpmin=0/qpmax=81/qpstep=4/ip_ratio=1.40/pb_ratio=1.30/aq=1: 0.95
    Language : Japanese
    Default : Yes
    Forced : No
    Color range : Limited
    Color primaries : BT.709
    Transfer characteristics : BT.709
    Matrix coefficients : BT.709
    Audio #1
    ID : 2
    Format : AC-3
    Format/Info : Audio Coding 3
    Commercial name : Dolby Digital
    Codec ID : A_AC3
    Duration : 23 min 56 s
    Bit rate mode : Constant
    Bit rate : 192 kb/s
    Channel(s) : 2 channels
    Channel layout : L R
    Sampling rate : 48.0 kHz
    Frame rate : 31.250 FPS (1536 SPF)
    Compression mode : Lossy
    Stream size : 32.9 MiB (3%)
    Title : AniDub
    Language : Russian
    Service kind : Complete Main
    Default : Yes
    Forced : No
    Audio #2
    ID : 3
    Format : AC-3
    Format/Info : Audio Coding 3
    Commercial name : Dolby Digital
    Codec ID : A_AC3
    Duration : 23 min 56 s
    Bit rate mode : Constant
    Bit rate : 192 kb/s
    Channel(s) : 2 channels
    Channel layout : L R
    Sampling rate : 48.0 kHz
    Frame rate : 31.250 FPS (1536 SPF)
    Compression mode : Lossy
    Stream size : 32.9 MiB (3%)
    Title : AniLibria
    Language : Russian
    Service kind : Complete Main
    Default : No
    Forced : No
    Audio #3
    ID : 4
    Format : AC-3
    Format/Info : Audio Coding 3
    Commercial name : Dolby Digital
    Codec ID : A_AC3
    Duration : 23 min 56 s
    Bit rate mode : Constant
    Bit rate : 192 kb/s
    Channel(s) : 2 channels
    Channel layout : L R
    Sampling rate : 48.0 kHz
    Frame rate : 31.250 FPS (1536 SPF)
    Compression mode : Lossy
    Stream size : 32.9 MiB (3%)
    Title : Shiza Project
    Language : Russian
    Service kind : Complete Main
    Default : No
    Forced : No
    Audio #4
    ID : 5
    Format : FLAC
    Format/Info : Free Lossless Audio Codec
    Codec ID : A_FLAC
    Duration : 23 min 56 s
    Bit rate mode : Variable
    Bit rate : 678 kb/s
    Channel(s) : 2 channels
    Channel layout : L R
    Sampling rate : 48.0 kHz
    Frame rate : 11.719 FPS (4096 SPF)
    Bit depth : 16 bits
    Compression mode : Lossless
    Stream size : 116 MiB (11%)
    Title : Original
    Writing library : libFLAC 20080709 (UTC 2008-07-09)
    Language : Japanese
    Default : No
    Forced : No
    Text #1
    ID : 6
    Format : ASS
    Codec ID : S_TEXT/ASS
    Codec ID/Info : Advanced Sub Station Alpha
    Duration : 23 min 55 s
    Bit rate : 5 513 b/s
    Count of elements : 6490
    Compression mode : Lossless
    Stream size : 966 KiB (0%)
    Title : Forced (Esito Klimena)
    Language : Russian
    Default : Yes
    Forced : No
    Text #2
    ID : 7
    Format : ASS
    Codec ID : S_TEXT/ASS
    Codec ID/Info : Advanced Sub Station Alpha
    Duration : 23 min 55 s
    Bit rate : 5 661 b/s
    Count of elements : 6870
    Compression mode : Lossless
    Stream size : 992 KiB (0%)
    Title : Full (Esito Klimena)
    Language : Russian
    Default : No
    Forced : No
    Menu
    00: 00: 00.000 : : intro
    00: 01: 11.988 : : OP
    00: 02: 42.036 : : part A
    00: 11: 22.014 : : part B
    00: 22: 10.078 : : ED
    00: 23: 40.043 : : preview



    General
    Unique ID : 265638279212554921064821673135424261152 (0xC7D812566A5D60AA60F0869B0F11CC20)
    Complete name : J: АнимеПожиратель Душ! Клвсс НОТ! (Soul Eater Not!) BDRip (2014)7. Nice Day for a Death Bazaar!.mkv
    Format : Matroska
    Format version : Version 4
    File size : 1.09 GiB
    Duration : 23 min 57 s
    Overall bit rate mode : Variable
    Overall bit rate : 6 531 kb/s
    Encoded date : UTC 2020-02-20 21: 41: 53
    Writing application : mkvmerge v43.0.0 (\'The Quartermaster\') 64-bit
    Writing library : libebml v1.3.10 + libmatroska v1.5.2
    Video
    ID : 1
    Format : AVC
    Format/Info : Advanced Video Codec
    Format profile : High 10@L5
    Format settings : CABAC/5 Ref Frames
    Format settings, CABAC : Yes
    Format settings, Reference : 5 frames
    Codec ID : V_MPEG4/ISO/AVC
    Duration : 23 min 57 s
    Bit rate : 5 249 kb/s
    Width : 1 920 pixels
    Height : 1 080 pixels
    Display aspect ratio : 16: 9
    Frame rate mode : Constant
    Frame rate : 23.976 (24000/1001) FPS
    Color space : YUV
    Chroma subsampling : 4: 2: 0
    Bit depth : 10 bits
    Scan type : Progressive
    Bits/(Pixel*Frame) : 0.106
    Stream size : 899 MiB (80%)
    Title : Soul Eater Not! ep.07 Nice Day for a Death Bazaar!
    Writing library : x264 core 148 r2579 73ae2d1
    Encoding settings : cabac=1/ref=5/deblock=1: -3: -3/analyse=0x3: 0x113/me=umh/subme=9/psy=1/psy_rd=0.95: 0.00/mixed_ref=1/me_range=32/chroma_me=1/trellis=2/8x8dct=1/cqm=0/deadzone=21, 11/fast_pskip=1/chroma_qp_offset=-2/threads=12/lookahead_threads=2/sliced_threads=0/nr=0/decimate=1/interlaced=0/bluray_compat=0/constrained_intra=0/bframes=7/b_pyramid=2/b_adapt=2/b_bias=0/direct=1/weightb=1/open_gop=0/weightp=2/keyint=240/keyint_min=23/scenecut=40/intra_refresh=0/rc=crf/mbtree=0/crf=15.5/qcomp=0.75/qpmin=0/qpmax=81/qpstep=4/ip_ratio=1.40/pb_ratio=1.30/aq=1: 0.95
    Language : Japanese
    Default : Yes
    Forced : No
    Color range : Limited
    Color primaries : BT.709
    Transfer characteristics : BT.709
    Matrix coefficients : BT.709
    Audio #1
    ID : 2
    Format : AC-3
    Format/Info : Audio Coding 3
    Commercial name : Dolby Digital
    Codec ID : A_AC3
    Duration : 23 min 57 s
    Bit rate mode : Constant
    Bit rate : 192 kb/s
    Channel(s) : 2 channels
    Channel layout : L R
    Sampling rate : 48.0 kHz
    Frame rate : 31.250 FPS (1536 SPF)
    Compression mode : Lossy
    Stream size : 32.9 MiB (3%)
    Title : AniDub
    Language : Russian
    Service kind : Complete Main
    Default : Yes
    Forced : No
    Audio #2
    ID : 3
    Format : AC-3
    Format/Info : Audio Coding 3
    Commercial name : Dolby Digital
    Codec ID : A_AC3
    Duration : 23 min 57 s
    Bit rate mode : Constant
    Bit rate : 192 kb/s
    Channel(s) : 2 channels
    Channel layout : L R
    Sampling rate : 48.0 kHz
    Frame rate : 31.250 FPS (1536 SPF)
    Compression mode : Lossy
    Stream size : 32.9 MiB (3%)
    Title : AniLibria
    Language : Russian
    Service kind : Complete Main
    Default : No
    Forced : No
    Audio #3
    ID : 4
    Format : AC-3
    Format/Info : Audio Coding 3
    Commercial name : Dolby Digital
    Codec ID : A_AC3
    Duration : 23 min 57 s
    Bit rate mode : Constant
    Bit rate : 192 kb/s
    Channel(s) : 2 channels
    Channel layout : L R
    Sampling rate : 48.0 kHz
    Frame rate : 31.250 FPS (1536 SPF)
    Compression mode : Lossy
    Stream size : 32.9 MiB (3%)
    Title : Shiza Project
    Language : Russian
    Service kind : Complete Main
    Default : No
    Forced : No
    Audio #4
    ID : 5
    Format : FLAC
    Format/Info : Free Lossless Audio Codec
    Codec ID : A_FLAC
    Duration : 23 min 57 s
    Bit rate mode : Variable
    Bit rate : 700 kb/s
    Channel(s) : 2 channels
    Channel layout : L R
    Sampling rate : 48.0 kHz
    Frame rate : 11.719 FPS (4096 SPF)
    Bit depth : 16 bits
    Compression mode : Lossless
    Stream size : 120 MiB (11%)
    Title : Original
    Writing library : libFLAC 20080709 (UTC 2008-07-09)
    Language : Japanese
    Default : No
    Forced : No
    Text #1
    ID : 6
    Format : ASS
    Codec ID : S_TEXT/ASS
    Codec ID/Info : Advanced Sub Station Alpha
    Duration : 23 min 54 s
    Bit rate : 1 033 b/s
    Count of elements : 812
    Compression mode : Lossless
    Stream size : 181 KiB (0%)
    Title : Forced (Esito Klimena)
    Language : Russian
    Default : Yes
    Forced : No
    Text #2
    ID : 7
    Format : ASS
    Codec ID : S_TEXT/ASS
    Codec ID/Info : Advanced Sub Station Alpha
    Duration : 23 min 54 s
    Bit rate : 1 190 b/s
    Count of elements : 1205
    Compression mode : Lossless
    Stream size : 208 KiB (0%)
    Title : Full (Esito Klimena)
    Language : Russian
    Default : No
    Forced : No
    Menu
    00: 00: 00.000 : : intro
    00: 00: 36.036 : : OP
    00: 02: 06.000 : : part A
    00: 12: 13.023 : : part B
    00: 22: 11.038 : : ED
    00: 23: 41.002 : : preview



    General
    Unique ID : 250403247705553741833340303084216386217 (0xBC61E94A7C0B774077A68498A53402A9)
    Complete name : J: АнимеПожиратель Душ! Клвсс НОТ! (Soul Eater Not!) BDRip (2014)8. Tsugumi Spiral!.mkv
    Format : Matroska
    Format version : Version 4
    File size : 1.08 GiB
    Duration : 23 min 56 s
    Overall bit rate mode : Variable
    Overall bit rate : 6 453 kb/s
    Encoded date : UTC 2020-02-20 21: 42: 41
    Writing application : mkvmerge v43.0.0 (\'The Quartermaster\') 64-bit
    Writing library : libebml v1.3.10 + libmatroska v1.5.2
    Video
    ID : 1
    Format : AVC
    Format/Info : Advanced Video Codec
    Format profile : High 10@L5
    Format settings : CABAC/5 Ref Frames
    Format settings, CABAC : Yes
    Format settings, Reference : 5 frames
    Codec ID : V_MPEG4/ISO/AVC
    Duration : 23 min 56 s
    Bit rate : 5 205 kb/s
    Width : 1 920 pixels
    Height : 1 080 pixels
    Display aspect ratio : 16: 9
    Frame rate mode : Constant
    Frame rate : 23.976 (24000/1001) FPS
    Color space : YUV
    Chroma subsampling : 4: 2: 0
    Bit depth : 10 bits
    Scan type : Progressive
    Bits/(Pixel*Frame) : 0.105
    Stream size : 891 MiB (81%)
    Title : Soul Eater Not! ep.08 Tsugumi Spiral!
    Writing library : x264 core 148 r2579 73ae2d1
    Encoding settings : cabac=1/ref=5/deblock=1: -3: -3/analyse=0x3: 0x113/me=umh/subme=9/psy=1/psy_rd=0.95: 0.00/mixed_ref=1/me_range=32/chroma_me=1/trellis=2/8x8dct=1/cqm=0/deadzone=21, 11/fast_pskip=1/chroma_qp_offset=-2/threads=12/lookahead_threads=2/sliced_threads=0/nr=0/decimate=1/interlaced=0/bluray_compat=0/constrained_intra=0/bframes=7/b_pyramid=2/b_adapt=2/b_bias=0/direct=1/weightb=1/open_gop=0/weightp=2/keyint=240/keyint_min=23/scenecut=40/intra_refresh=0/rc=crf/mbtree=0/crf=15.5/qcomp=0.75/qpmin=0/qpmax=81/qpstep=4/ip_ratio=1.40/pb_ratio=1.30/aq=1: 0.95
    Language : Japanese
    Default : Yes
    Forced : No
    Color range : Limited
    Color primaries : BT.709
    Transfer characteristics : BT.709
    Matrix coefficients : BT.709
    Audio #1
    ID : 2
    Format : AC-3
    Format/Info : Audio Coding 3
    Commercial name : Dolby Digital
    Codec ID : A_AC3
    Duration : 23 min 56 s
    Bit rate mode : Constant
    Bit rate : 192 kb/s
    Channel(s) : 2 channels
    Channel layout : L R
    Sampling rate : 48.0 kHz
    Frame rate : 31.250 FPS (1536 SPF)
    Compression mode : Lossy
    Stream size : 32.9 MiB (3%)
    Title : AniDub
    Language : Russian
    Service kind : Complete Main
    Default : Yes
    Forced : No
    Audio #2
    ID : 3
    Format : AC-3
    Format/Info : Audio Coding 3
    Commercial name : Dolby Digital
    Codec ID : A_AC3
    Duration : 23 min 56 s
    Bit rate mode : Constant
    Bit rate : 192 kb/s
    Channel(s) : 2 channels
    Channel layout : L R
    Sampling rate : 48.0 kHz
    Frame rate : 31.250 FPS (1536 SPF)
    Compression mode : Lossy
    Stream size : 32.9 MiB (3%)
    Title : AniLibria
    Language : Russian
    Service kind : Complete Main
    Default : No
    Forced : No
    Audio #3
    ID : 4
    Format : AC-3
    Format/Info : Audio Coding 3
    Commercial name : Dolby Digital
    Codec ID : A_AC3
    Duration : 23 min 56 s
    Bit rate mode : Constant
    Bit rate : 192 kb/s
    Channel(s) : 2 channels
    Channel layout : L R
    Sampling rate : 48.0 kHz
    Frame rate : 31.250 FPS (1536 SPF)
    Compression mode : Lossy
    Stream size : 32.9 MiB (3%)
    Title : Shiza Project
    Language : Russian
    Service kind : Complete Main
    Default : No
    Forced : No
    Audio #4
    ID : 5
    Format : FLAC
    Format/Info : Free Lossless Audio Codec
    Codec ID : A_FLAC
    Duration : 23 min 56 s
    Bit rate mode : Variable
    Bit rate : 667 kb/s
    Channel(s) : 2 channels
    Channel layout : L R
    Sampling rate : 48.0 kHz
    Frame rate : 11.719 FPS (4096 SPF)
    Bit depth : 16 bits
    Compression mode : Lossless
    Stream size : 114 MiB (10%)
    Title : Original
    Writing library : libFLAC 20080709 (UTC 2008-07-09)
    Language : Japanese
    Default : No
    Forced : No
    Text #1
    ID : 6
    Format : ASS
    Codec ID : S_TEXT/ASS
    Codec ID/Info : Advanced Sub Station Alpha
    Duration : 23 min 54 s
    Bit rate : 1 075 b/s
    Count of elements : 881
    Compression mode : Lossless
    Stream size : 188 KiB (0%)
    Title : Forced (Esito Klimena)
    Language : Russian
    Default : Yes
    Forced : No
    Text #2
    ID : 7
    Format : ASS
    Codec ID : S_TEXT/ASS
    Codec ID/Info : Advanced Sub Station Alpha
    Duration : 23 min 54 s
    Bit rate : 1 212 b/s
    Count of elements : 1191
    Compression mode : Lossless
    Stream size : 212 KiB (0%)
    Title : Full (Esito Klimena)
    Language : Russian
    Default : No
    Forced : No
    Menu
    00: 00: 00.000 : : intro
    00: 02: 42.037 : : OP
    00: 04: 12.002 : : part A
    00: 11: 28.021 : : part B
    00: 22: 10.079 : : ED
    00: 23: 40.044 : : preview



    General
    Unique ID : 273205474562598426397598289995171367451 (0xCD8975DF98BAC979F72B510B9D300A1B)
    Complete name : J: АнимеПожиратель Душ! Клвсс НОТ! (Soul Eater Not!) BDRip (2014)9. Pumpkin Growing!.mkv
    Format : Matroska
    Format version : Version 4
    File size : 1.15 GiB
    Duration : 23 min 57 s
    Overall bit rate mode : Variable
    Overall bit rate : 6 888 kb/s
    Encoded date : UTC 2020-02-20 21: 43: 31
    Writing application : mkvmerge v43.0.0 (\'The Quartermaster\') 64-bit
    Writing library : libebml v1.3.10 + libmatroska v1.5.2
    Video
    ID : 1
    Format : AVC
    Format/Info : Advanced Video Codec
    Format profile : High 10@L5
    Format settings : CABAC/5 Ref Frames
    Format settings, CABAC : Yes
    Format settings, Reference : 5 frames
    Codec ID : V_MPEG4/ISO/AVC
    Duration : 23 min 57 s
    Bit rate : 5 604 kb/s
    Width : 1 920 pixels
    Height : 1 080 pixels
    Display aspect ratio : 16: 9
    Frame rate mode : Constant
    Frame rate : 23.976 (24000/1001) FPS
    Color space : YUV
    Chroma subsampling : 4: 2: 0
    Bit depth : 10 bits
    Scan type : Progressive
    Bits/(Pixel*Frame) : 0.113
    Stream size : 960 MiB (81%)
    Title : Soul Eater Not! ep.09 Pumpkin Growing!
    Writing library : x264 core 148 r2579 73ae2d1
    Encoding settings : cabac=1/ref=5/deblock=1: -3: -3/analyse=0x3: 0x113/me=umh/subme=9/psy=1/psy_rd=0.95: 0.00/mixed_ref=1/me_range=32/chroma_me=1/trellis=2/8x8dct=1/cqm=0/deadzone=21, 11/fast_pskip=1/chroma_qp_offset=-2/threads=12/lookahead_threads=2/sliced_threads=0/nr=0/decimate=1/interlaced=0/bluray_compat=0/constrained_intra=0/bframes=7/b_pyramid=2/b_adapt=2/b_bias=0/direct=1/weightb=1/open_gop=0/weightp=2/keyint=240/keyint_min=23/scenecut=40/intra_refresh=0/rc=crf/mbtree=0/crf=15.5/qcomp=0.75/qpmin=0/qpmax=81/qpstep=4/ip_ratio=1.40/pb_ratio=1.30/aq=1: 0.95
    Language : Japanese
    Default : Yes
    Forced : No
    Color range : Limited
    Color primaries : BT.709
    Transfer characteristics : BT.709
    Matrix coefficients : BT.709
    Audio #1
    ID : 2
    Format : AC-3
    Format/Info : Audio Coding 3
    Commercial name : Dolby Digital
    Codec ID : A_AC3
    Duration : 23 min 57 s
    Bit rate mode : Constant
    Bit rate : 192 kb/s
    Channel(s) : 2 channels
    Channel layout : L R
    Sampling rate : 48.0 kHz
    Frame rate : 31.250 FPS (1536 SPF)
    Compression mode : Lossy
    Stream size : 32.9 MiB (3%)
    Title : AniDub
    Language : Russian
    Service kind : Complete Main
    Default : Yes
    Forced : No
    Audio #2
    ID : 3
    Format : AC-3
    Format/Info : Audio Coding 3
    Commercial name : Dolby Digital
    Codec ID : A_AC3
    Duration : 23 min 57 s
    Bit rate mode : Constant
    Bit rate : 192 kb/s
    Channel(s) : 2 channels
    Channel layout : L R
    Sampling rate : 48.0 kHz
    Frame rate : 31.250 FPS (1536 SPF)
    Compression mode : Lossy
    Stream size : 32.9 MiB (3%)
    Title : AniLibria
    Language : Russian
    Service kind : Complete Main
    Default : No
    Forced : No
    Audio #3
    ID : 4
    Format : AC-3
    Format/Info : Audio Coding 3
    Commercial name : Dolby Digital
    Codec ID : A_AC3
    Duration : 23 min 57 s
    Bit rate mode : Constant
    Bit rate : 192 kb/s
    Channel(s) : 2 channels
    Channel layout : L R
    Sampling rate : 48.0 kHz
    Frame rate : 31.250 FPS (1536 SPF)
    Compression mode : Lossy
    Stream size : 32.9 MiB (3%)
    Title : Shiza Project
    Language : Russian
    Service kind : Complete Main
    Default : No
    Forced : No
    Audio #4
    ID : 5
    Format : FLAC
    Format/Info : Free Lossless Audio Codec
    Codec ID : A_FLAC
    Duration : 23 min 57 s
    Bit rate mode : Variable
    Bit rate : 700 kb/s
    Channel(s) : 2 channels
    Channel layout : L R
    Sampling rate : 48.0 kHz
    Frame rate : 11.719 FPS (4096 SPF)
    Bit depth : 16 bits
    Compression mode : Lossless
    Stream size : 120 MiB (10%)
    Title : Original
    Writing library : libFLAC 20080709 (UTC 2008-07-09)
    Language : Japanese
    Default : No
    Forced : No
    Text #1
    ID : 6
    Format : ASS
    Codec ID : S_TEXT/ASS
    Codec ID/Info : Advanced Sub Station Alpha
    Duration : 23 min 15 s
    Bit rate : 2 044 b/s
    Count of elements : 2128
    Compression mode : Lossless
    Stream size : 348 KiB (0%)
    Title : Forced (Esito Klimena)
    Language : Russian
    Default : Yes
    Forced : No
    Text #2
    ID : 7
    Format : ASS
    Codec ID : S_TEXT/ASS
    Codec ID/Info : Advanced Sub Station Alpha
    Duration : 23 min 53 s
    Bit rate : 2 135 b/s
    Count of elements : 2434
    Compression mode : Lossless
    Stream size : 374 KiB (0%)
    Title : Full (Esito Klimena)
    Language : Russian
    Default : No
    Forced : No
    Menu
    00: 00: 00.000 : : intro
    00: 00: 39.038 : : OP
    00: 02: 09.003 : : part A
    00: 13: 35.022 : : part B
    00: 22: 11.079 : : ED
    00: 23: 41.044 : : preview



    General
    Unique ID : 229144598019167410756821906816998809454 (0xAC63A4F0518830D910F14D00D83F9F6E)
    Complete name : J: АнимеПожиратель Душ! Клвсс НОТ! (Soul Eater Not!) BDRip (2014)10. The Beginning of the Nightmare!.mkv
    Format : Matroska
    Format version : Version 4
    File size : 1.10 GiB
    Duration : 23 min 56 s
    Overall bit rate mode : Variable
    Overall bit rate : 6 575 kb/s
    Encoded date : UTC 2020-02-20 21: 44: 24
    Writing application : mkvmerge v43.0.0 (\'The Quartermaster\') 64-bit
    Writing library : libebml v1.3.10 + libmatroska v1.5.2
    Video
    ID : 1
    Format : AVC
    Format/Info : Advanced Video Codec
    Format profile : High 10@L5
    Format settings : CABAC/5 Ref Frames
    Format settings, CABAC : Yes
    Format settings, Reference : 5 frames
    Codec ID : V_MPEG4/ISO/AVC
    Duration : 23 min 55 s
    Bit rate : 5 344 kb/s
    Width : 1 920 pixels
    Height : 1 080 pixels
    Display aspect ratio : 16: 9
    Frame rate mode : Constant
    Frame rate : 23.976 (24000/1001) FPS
    Color space : YUV
    Chroma subsampling : 4: 2: 0
    Bit depth : 10 bits
    Scan type : Progressive
    Bits/(Pixel*Frame) : 0.107
    Stream size : 915 MiB (81%)
    Title : Soul Eater Not! ep.10 The Beginning of the Nightmare!
    Writing library : x264 core 148 r2579 73ae2d1
    Encoding settings : cabac=1/ref=5/deblock=1: -3: -3/analyse=0x3: 0x113/me=umh/subme=9/psy=1/psy_rd=0.95: 0.00/mixed_ref=1/me_range=32/chroma_me=1/trellis=2/8x8dct=1/cqm=0/deadzone=21, 11/fast_pskip=1/chroma_qp_offset=-2/threads=12/lookahead_threads=2/sliced_threads=0/nr=0/decimate=1/interlaced=0/bluray_compat=0/constrained_intra=0/bframes=7/b_pyramid=2/b_adapt=2/b_bias=0/direct=1/weightb=1/open_gop=0/weightp=2/keyint=240/keyint_min=23/scenecut=40/intra_refresh=0/rc=crf/mbtree=0/crf=15.5/qcomp=0.75/qpmin=0/qpmax=81/qpstep=4/ip_ratio=1.40/pb_ratio=1.30/aq=1: 0.95
    Language : Japanese
    Default : Yes
    Forced : No
    Color range : Limited
    Color primaries : BT.709
    Transfer characteristics : BT.709
    Matrix coefficients : BT.709
    Audio #1
    ID : 2
    Format : AC-3
    Format/Info : Audio Coding 3
    Commercial name : Dolby Digital
    Codec ID : A_AC3
    Duration : 23 min 56 s
    Bit rate mode : Constant
    Bit rate : 192 kb/s
    Channel(s) : 2 channels
    Channel layout : L R
    Sampling rate : 48.0 kHz
    Frame rate : 31.250 FPS (1536 SPF)
    Compression mode : Lossy
    Stream size : 32.9 MiB (3%)
    Title : AniDub
    Language : Russian
    Service kind : Complete Main
    Default : Yes
    Forced : No
    Audio #2
    ID : 3
    Format : AC-3
    Format/Info : Audio Coding 3
    Commercial name : Dolby Digital
    Codec ID : A_AC3
    Duration : 23 min 55 s
    Bit rate mode : Constant
    Bit rate : 192 kb/s
    Channel(s) : 2 channels
    Channel layout : L R
    Sampling rate : 48.0 kHz
    Frame rate : 31.250 FPS (1536 SPF)
    Compression mode : Lossy
    Stream size : 32.9 MiB (3%)
    Title : AniLibria
    Language : Russian
    Service kind : Complete Main
    Default : No
    Forced : No
    Audio #3
    ID : 4
    Format : AC-3
    Format/Info : Audio Coding 3
    Commercial name : Dolby Digital
    Codec ID : A_AC3
    Duration : 23 min 55 s
    Bit rate mode : Constant
    Bit rate : 192 kb/s
    Channel(s) : 2 channels
    Channel layout : L R
    Sampling rate : 48.0 kHz
    Frame rate : 31.250 FPS (1536 SPF)
    Compression mode : Lossy
    Stream size : 32.9 MiB (3%)
    Title : Shiza Project
    Language : Russian
    Service kind : Complete Main
    Default : No
    Forced : No
    Audio #4
    ID : 5
    Format : FLAC
    Format/Info : Free Lossless Audio Codec
    Codec ID : A_FLAC
    Duration : 23 min 55 s
    Bit rate mode : Variable
    Bit rate : 650 kb/s
    Channel(s) : 2 channels
    Channel layout : L R
    Sampling rate : 48.0 kHz
    Frame rate : 11.719 FPS (4096 SPF)
    Bit depth : 16 bits
    Compression mode : Lossless
    Stream size : 111 MiB (10%)
    Title : Original
    Writing library : libFLAC 20080709 (UTC 2008-07-09)
    Language : Japanese
    Default : No
    Forced : No
    Text #1
    ID : 6
    Format : ASS
    Codec ID : S_TEXT/ASS
    Codec ID/Info : Advanced Sub Station Alpha
    Duration : 23 min 54 s
    Bit rate : 1 051 b/s
    Count of elements : 848
    Compression mode : Lossless
    Stream size : 184 KiB (0%)
    Title : Forced (Esito Klimena)
    Language : Russian
    Default : Yes
    Forced : No
    Text #2
    ID : 7
    Format : ASS
    Codec ID : S_TEXT/ASS
    Codec ID/Info : Advanced Sub Station Alpha
    Duration : 23 min 54 s
    Bit rate : 1 173 b/s
    Count of elements : 1150
    Compression mode : Lossless
    Stream size : 206 KiB (0%)
    Title : Full (Esito Klimena)
    Language : Russian
    Default : No
    Forced : No
    Menu
    00: 00: 00.000 : : OP
    00: 01: 30.007 : : part A
    00: 09: 57.973 : : part B
    00: 22: 09.995 : : ED
    00: 23: 39.960 : : preview



    General
    Unique ID : 128845961243254893005823247866365565196 (0x60EED459ED433EE1B466B240ABE5590C)
    Complete name : J: АнимеПожиратель Душ! Клвсс НОТ! (Soul Eater Not!) BDRip (2014)11. Their Various Resolves!.mkv
    Format : Matroska
    Format version : Version 4
    File size : 1.20 GiB
    Duration : 23 min 56 s
    Overall bit rate mode : Variable
    Overall bit rate : 7 155 kb/s
    Encoded date : UTC 2020-02-20 21: 45: 20
    Writing application : mkvmerge v43.0.0 (\'The Quartermaster\') 64-bit
    Writing library : libebml v1.3.10 + libmatroska v1.5.2
    Video
    ID : 1
    Format : AVC
    Format/Info : Advanced Video Codec
    Format profile : High 10@L5
    Format settings : CABAC/5 Ref Frames
    Format settings, CABAC : Yes
    Format settings, Reference : 5 frames
    Codec ID : V_MPEG4/ISO/AVC
    Duration : 23 min 56 s
    Bit rate : 5 844 kb/s
    Width : 1 920 pixels
    Height : 1 080 pixels
    Display aspect ratio : 16: 9
    Frame rate mode : Constant
    Frame rate : 23.976 (24000/1001) FPS
    Color space : YUV
    Chroma subsampling : 4: 2: 0
    Bit depth : 10 bits
    Scan type : Progressive
    Bits/(Pixel*Frame) : 0.118
    Stream size : 1 001 MiB (82%)
    Title : Soul Eater Not! ep.11 Their Various Resolves!
    Writing library : x264 core 148 r2579 73ae2d1
    Encoding settings : cabac=1/ref=5/deblock=1: -3: -3/analyse=0x3: 0x113/me=umh/subme=9/psy=1/psy_rd=0.95: 0.00/mixed_ref=1/me_range=32/chroma_me=1/trellis=2/8x8dct=1/cqm=0/deadzone=21, 11/fast_pskip=1/chroma_qp_offset=-2/threads=12/lookahead_threads=2/sliced_threads=0/nr=0/decimate=1/interlaced=0/bluray_compat=0/constrained_intra=0/bframes=7/b_pyramid=2/b_adapt=2/b_bias=0/direct=1/weightb=1/open_gop=0/weightp=2/keyint=240/keyint_min=23/scenecut=40/intra_refresh=0/rc=crf/mbtree=0/crf=15.5/qcomp=0.75/qpmin=0/qpmax=81/qpstep=4/ip_ratio=1.40/pb_ratio=1.30/aq=1: 0.95
    Language : Japanese
    Default : Yes
    Forced : No
    Color range : Limited
    Color primaries : BT.709
    Transfer characteristics : BT.709
    Matrix coefficients : BT.709
    Audio #1
    ID : 2
    Format : AC-3
    Format/Info : Audio Coding 3
    Commercial name : Dolby Digital
    Codec ID : A_AC3
    Duration : 23 min 56 s
    Bit rate mode : Constant
    Bit rate : 192 kb/s
    Channel(s) : 2 channels
    Channel layout : L R
    Sampling rate : 48.0 kHz
    Frame rate : 31.250 FPS (1536 SPF)
    Compression mode : Lossy
    Stream size : 32.9 MiB (3%)
    Title : AniDub
    Language : Russian
    Service kind : Complete Main
    Default : Yes
    Forced : No
    Audio #2
    ID : 3
    Format : AC-3
    Format/Info : Audio Coding 3
    Commercial name : Dolby Digital
    Codec ID : A_AC3
    Duration : 23 min 56 s
    Bit rate mode : Constant
    Bit rate : 192 kb/s
    Channel(s) : 2 channels
    Channel layout : L R
    Sampling rate : 48.0 kHz
    Frame rate : 31.250 FPS (1536 SPF)
    Compression mode : Lossy
    Stream size : 32.9 MiB (3%)
    Title : AniLibria
    Language : Russian
    Service kind : Complete Main
    Default : No
    Forced : No
    Audio #3
    ID : 4
    Format : AC-3
    Format/Info : Audio Coding 3
    Commercial name : Dolby Digital
    Codec ID : A_AC3
    Duration : 23 min 56 s
    Bit rate mode : Constant
    Bit rate : 192 kb/s
    Channel(s) : 2 channels
    Channel layout : L R
    Sampling rate : 48.0 kHz
    Frame rate : 31.250 FPS (1536 SPF)
    Compression mode : Lossy
    Stream size : 32.9 MiB (3%)
    Title : Shiza Project
    Language : Russian
    Service kind : Complete Main
    Default : No
    Forced : No
    Audio #4
    ID : 5
    Format : FLAC
    Format/Info : Free Lossless Audio Codec
    Codec ID : A_FLAC
    Duration : 23 min 56 s
    Bit rate mode : Variable
    Bit rate : 729 kb/s
    Channel(s) : 2 channels
    Channel layout : L R
    Sampling rate : 48.0 kHz
    Frame rate : 11.719 FPS (4096 SPF)
    Bit depth : 16 bits
    Compression mode : Lossless
    Stream size : 125 MiB (10%)
    Title : Original
    Writing library : libFLAC 20080709 (UTC 2008-07-09)
    Language : Japanese
    Default : No
    Forced : No
    Text #1
    ID : 6
    Format : ASS
    Codec ID : S_TEXT/ASS
    Codec ID/Info : Advanced Sub Station Alpha
    Duration : 23 min 53 s
    Bit rate : 1 033 b/s
    Count of elements : 812
    Compression mode : Lossless
    Stream size : 181 KiB (0%)
    Title : Forced (Esito Klimena)
    Language : Russian
    Default : Yes
    Forced : No
    Text #2
    ID : 7
    Format : ASS
    Codec ID : S_TEXT/ASS
    Codec ID/Info : Advanced Sub Station Alpha
    Duration : 23 min 53 s
    Bit rate : 1 168 b/s
    Count of elements : 1138
    Compression mode : Lossless
    Stream size : 204 KiB (0%)
    Title : Full (Esito Klimena)
    Language : Russian
    Default : No
    Forced : No
    Menu
    00: 00: 00.000 : : OP
    00: 01: 31.007 : : part A
    00: 11: 10.961 : : part B
    00: 22: 10.954 : : ED
    00: 23: 40.919 : : preview



    General
    Unique ID : 148136291679912368886708396457826885648 (0x6F7203126943E3EE3B8FCCF83F02A010)
    Complete name : J: АнимеПожиратель Душ! Клвсс НОТ! (Soul Eater Not!) BDRip (2014)12. Soul Resonance!.mkv
    Format : Matroska
    Format version : Version 4
    File size : 1.22 GiB
    Duration : 23 min 52 s
    Overall bit rate mode : Variable
    Overall bit rate : 7 305 kb/s
    Encoded date : UTC 2020-02-20 21: 46: 23
    Writing application : mkvmerge v43.0.0 (\'The Quartermaster\') 64-bit
    Writing library : libebml v1.3.10 + libmatroska v1.5.2
    Video
    ID : 1
    Format : AVC
    Format/Info : Advanced Video Codec
    Format profile : High 10@L5
    Format settings : CABAC/5 Ref Frames
    Format settings, CABAC : Yes
    Format settings, Reference : 5 frames
    Codec ID : V_MPEG4/ISO/AVC
    Duration : 23 min 52 s
    Bit rate : 5 966 kb/s
    Width : 1 920 pixels
    Height : 1 080 pixels
    Display aspect ratio : 16: 9
    Frame rate mode : Constant
    Frame rate : 23.976 (24000/1001) FPS
    Color space : YUV
    Chroma subsampling : 4: 2: 0
    Bit depth : 10 bits
    Scan type : Progressive
    Bits/(Pixel*Frame) : 0.120
    Stream size : 1 019 MiB (82%)
    Title : Soul Eater Not! ep.12 Soul Resonance!
    Writing library : x264 core 148 r2579 73ae2d1
    Encoding settings : cabac=1/ref=5/deblock=1: -3: -3/analyse=0x3: 0x113/me=umh/subme=9/psy=1/psy_rd=0.95: 0.00/mixed

    Soul Eater Not! | Пожиратель Душ! Класс НОТ! [2014, TV, 12 ep] BDRip 1080p 10-bit raw+rus торрент скачать бесплатно
    Рейтинг →
     (голосов: 1, оценка 4/5, голосовать можно 1 раз )

    Другие торренты по теме:

  • Soul Eater Not! [2014, TV, 12] HDTV 720p raw
  • Soul Eater Not! [2014, TV, 12] BDrip 1080p Hi10p raw скачать через торрент бесплатно
  • Soul Eater | Пожиратель Душ [2008, TV, 51 ep] BDRip 1080p raw+rus
  • Rusty Bryant - Fire Eater (1971) / 2014, Universal / [FLAC|tracks+.cue]<Jazz-Funk, Soul-Jazz, Hummond Organ> скачать через торрент бесплатно


    • Комментарии (0):

      Информация

      Информация

        Посетители, находящиеся в группе Гости, не могут оставлять комментарии в данной новости.

        ↓ Меню




        Популярное

        Роботы-пожарные / Fire Robo (2016) WEB-DLRip [H.264 / 720p-LQ] (сезон 1, серии 1-26 из 26) [Обновляемая]

        (скачиваний: 6)
        Лея Уотерс | Переключение на силу. Как научиться видеть в детях сильные стороны, чтобы помочь им расцвести (2019) [EPUB]

        (скачиваний: 5)
        Жила-была царевна (2015-2019) WEB-DLRip [H.264 / 720p-LQ] (сезон 1, серии 1-18 из 26) [Обновляемая]

        (скачиваний: 5)
        Сергей Матвеев | Полный курс английского языка для лентяев (2016) [PDF]

        (скачиваний: 5)
        Алексей Марков | Хулиганская экономика. Финансовые рынки для хулиганов и их родителей (2019) [EPUB]

        (скачиваний: 4)
        Металионы / Metalions (2018-2019) WEB-DLRip [H.264 / 720p-LQ] (сезон 1, серии 1-52 из 52) [Обновляемая]

        (скачиваний: 4)
        Александр Нилл | Воспитание свободой. Школа Саммерхилл (2020) [EPUB]

        (скачиваний: 4)
        Серия книг | Образовательная манга (2010 - 2015) [PDF]

        (скачиваний: 4)
        Мариэтта Чудакова | Рассказы про Россию. 1861—1922 (2020) [EPUB]

        (скачиваний: 3)
        Gekijouban KanColle | Kantai Collection Movie | Fleet Girls Collection: Movie Sequence| Коллекционная флотилия на большом экране [2016, Movie] BDrip 720p 10bit raw

        (скачиваний: 3)