Подписывайся на наш канал в Telegram https://t.me/torrentok и получи доступ к торрентам без ограничений!
.
Авторизация | Регистрация
bitok.xyz
Торрент скачать бесплатно Мультфильмы торрент скачать Soul Eater | Пожиратель Душ [2008, TV, 51 ep] BDRip 1080p raw+rus торрент скачать бесплатно


    Soul Eater | Пожиратель Душ [2008, TV, 51 ep] BDRip 1080p raw+rus торрент скачать бесплатно

    Дата: 29-02-2020, 05:00 | .torrent скачали: 0

    Soul Eater | Пожиратель Душ [2008, TV, 51 ep] BDRip 1080p raw+rusТип: TV
    Жанр: Приключения, Комедия, Фэнтези
    Продолжительность: 51 Эпизод по 23 Мин
    Количество серий: 51 Эпизод
    Дата выпуска: c07.04.2008 по30.03.2009
    Автор оригинала: Окубо Ацуси
    Режиссер: Игараси Такуя
    Производство: Bones/ Япония

    World-Art |AniDB |MyAnimelist |Shikimori

    Описание

    Действие разворачивается в основанной Шинигами Оружейной Академии. Три команды, каждая из которых состоит из мастера оружия и его напарника, способного перевоплощаться в одушевлённое оружие, соревнуются с целью быстрее остальных сделать Косу смерти. Коса смерти - это высший титул для оружия, и ставшее ею оружие будет служить самому Шинигами. Для создания Косы смерти команда должна собрать 99 душ падших людей и одну душу ведьмы.
    Старательная Мака и Соул Итер, бесстрашный Блэк Стар и терпеливая Цубаки, помешанный на симметрии Кид и сёстры Патти и Лиз — вот три команды, которым предстоит конкурировать друг с другом. Им предстоит не только собирать души, но и посещать академию, с каждым днём становясь всё сильнее, а так же защищать Город Смерти от могущественных созданий, жаждущих силы и вынашивающих коварные планы.
    Автор: sheo ©Shikimori
    Качество Видео: BDRip
    Видео: AVC/x264 , 1920x1080, 23.976 fps, 3 357 kb/s, 0.068 bpp8-bit
    Язык Озвучки: Японский и Русский
    Озвучка: Одноголосая, Двухголосая, Многоголосая закадровая
    Аудио №1: Opus2.0 , 48.0 kHz, 127 kb/s(AniDub) |Язык:
    Аудио №2: AAC2.0 , 48.0 kHz, 182 kb/s(MiraiDub) |Язык:
    Аудио №3: AAC2.0 , 48.0 kHz, 265 kb/s(AniLibria) |Язык:
    Аудио №4: FLAC2.0 , 48.0 kHz, 645 kb/s 16-Bit(Original) |Язык:
    Субтитры: Надписи/ Полные(Lurid Stan WarHammer)

    Скриншоты для ознакомления











    01. Resonance of the Soul - Soul=Eater, Want To Become A Death Scythe (Резонанс Душ - Станет ли Соул Итер Косой Смерти?)
    02. I m a Star For Sure! - I m an Extremely Big Man, Can You Shoot Me Here (Я звезда! Появление Мега Крутого парня)
    03. Becoming A Flawless Boy - Death the Kid`s Mission of Splendor (Идеальный Мальчик - Великолепная миссия Смерти Младшего)
    04. Witch Hunting Invocation! - Heart Throbbing Graveyard Supplementary Class Lessons (Пробуждение Охоты на Ведьм! Биение Сердца - Дополнительные занятия на кладбище?)
    05. Souls Form - Strongest Worker Stein`s Entrance (Очертание души - Появление сильнейшего Повелителя Штейна)
    06. Freshman Gossip! - Lots of Memories of Kids First Attendance at Shibusen (Появление известного новичка! Первое появление Кида в Академии)
    07. Black Blood of Terror - The Weapon Within Chrona (Чёрная Кровь Террора - Оружие внутри Хроны?)
    08. Witch Medusa - Great Evil Possessing Ones Soul (Ведьма Медуза - Обладательница ужасающе злобной души)
    09. Holy Legendary Sword - Kid and Black Stars Big Adventure (Легенда о Священном Мече - Приключения Кида и Блэк Стара)
    10. Demon Blade Masamune - Torn Dependant Soul, Singing Hearts Rain (Клинок Тьмы Масамунэ. Достучаться до захваченной души. Сердце, поющее под дождём)
    11. Tsubaki, the Camillia - What Lies Beyond Sadness (Цветок камелии - Что скрывает печаль?)
    12. Courage that is not Lost to Fear - Maka=Albarns One Large Determination (Смелость, побеждающая страх - Важное решение Маки Албан)
    13. Mans Demon Eyes - Soul and Maka, the Gap of the Souls Wavelength (Мужчина с Глазом Демона - Соул и Мака, разница в дыхании души)
    14. (Super) Written Test - Heart-Throbbing, Trembling, Nervous, Lies (Главный Письменный Экзамен - Сердцебиение, дрожь, нервы, ложь)
    15. Black Dragon that Eats Souls - Cowardly Liz and Her Pleasant Companions (Чёрный Дракон, пожирающий души! Испуганная Лиз и её милые помощники)
    16. Clash on the Ghost Ship! - A Hell Inside My Head (Поле боя - корабль-призрак. Ад в моей голове?)
    17. Holy Legendary Sword 2 - Drunk, Defeated, Bought, A Virtue (Легенда о Священном Мече 2 - Выпивка, Драки, Деньги, Честь)
    18. The Nightmare of Festivals Eve - And the Curtain Rises (Кошмар накануне праздника - Занавес, наконец, поднят)
    19. Begin! Underground Battle! - Bust Through Medusas Vector Arrow (Начало подземной битвы - Прорыв сквозь Векторные Стрелы Медузы)
    20. The Resonant Battle of Blood - Facing Fear, The Small Souls Big Struggle (Битва Резонансов Чёрной Крови! Соул противостоит страху)
    21. Reach Out, My Soul - My Thirsty Heart, Can`t Bear the Loneliness Inside (Достучаться до души - Невыносимо одинокое сердце)
    22. Seals shrine - The trap left by the immortal man (Снятая печать - Ловушка, подстроенная бессмертным)
    23. Dead or Alive! - Loophole of Revival and Illusion (Живым или Мёртвым! Расстояние между Воскрешением и Галлюцинацией)
    24. Battle of the Gods - Death City Collapse Crisis (Битва Богов. Город Смерти может быть разрушен)
    25. Calling Together! Death Scythe - Preventing Papas Staff Reassignment!! (Слёт Кос Смерти! Предотвратим папино смещение!)
    26. Happy and Embarrassing School Entrance Experience! - Shibusens New Life Aid Fair In Session (Радостная и смущающая школьная жизнь! Начало новой честной жизни в Академии)
    27. 800 Year Old Murderous Intent - The Heretic Witchs Descent (800 кровожадных лет. Возвращение Ведьмы-отступницы)
    28. Sword Saint Rises A Sweet or a Salty Taste (Возвращение Святого Меча. Сладкий или солёный вкус?)
    29. Medusas Revival! Spider and Snake, Fates Reunion (Возвращение Медузы! Змея и паук, предначертанная встреча)
    30. Red Hots Wildly Run Special Express! The Demon Tool Left Behind by the Great Demon Guru (Возвращение Медузы! Змея и паук, предначертанная встреча)
    31. Drying Happiness To Whom Do You Shed Tears in the Moonlight Shine (Жаркая погоня за бешеным поездом! Адская машина - наследие великого изобретателя)
    32. Holy Legendary Sword 3 Shibusens Gang Leader Tale (Легенда о Священном Мече 3 - Сказание о задире из Академии)
    33. Resonance Chain Playing the Souls Melodies (Групповой Резонанс. Звучи, мелодия наших душ)
    34. BREW Contest! Clash, Shibusen vs. Arachnophobia (Схватка за Брю! Академия против Арахнофобии)
    35. Mosquitos Storm! Old Days Worlds Time Limit is 10 Minutes (Рандеву с Москито! Вспомним былое, хоть на 10 минут)
    36. Release, Seven Peoples Resonance Chain! Concert of Creation and Destruction (Групповой Резонанс семерых! Мелодия разрушения и созидания)
    37. A Great Detectives First Case Shibusens Secret Exposed by Kid (Детективное дело №1 - Кид раскрывает секрет Академии)
    38. Asuras Temptation The Big Mans Uncontrollable Irritation (Искушение Асуры. Неконтролируемая Злоба Важного Человека)
    39. Cronas Escape Your Smile, Please (Хрона сбежала! Улыбнись мне, пожалуйста)
    40. The Shuffled Cards - Medusa Surrendering to Shibusen (Перемешанные карты. Медуза сдаётся Академии)
    41. Round and Round It Goes - The Professor Dances, a New World (Крыша едет не спеша. Безумные пляски профессора)
    42. Charge! Baba Yagas Castle - Why is Everything Suddenly so Unclear (В бой! амок Бабы Яги. Почему всё запуталось?)
    43. The Last Demon Tool - The Weaponless Kids Impossible Mission (Последняя адская машина. Кид безоружен - миссия невыполнима?)
    44. Coward Cronas Determination - For You, Who Are Always By My Side (Выбор слабой Хроны. Ради той, кто всегда был на её стороне)
    45. Demonslayers Wavelength Fierce Attack, Hatred of the Demon Hunter (Анти-демоническое дыхание души. Яростная атака охотников на демонов)
    46. Bravery. Bloodshed. Decisive Battle, Mifune vs. Black Star (Храбрость? Кровопролитие? Решающая битва: Мифунэ против Блэк Стара)
    47. The Miracle of Overturning a Table in Anger Our Death Citys Robot (Чудесное превращение! Летим! Наш Город Смерти - Робот?)
    48. The Weapon (Death Scythe) Shinigami Had Towards Uncertainty, Filled with Darkness (Шинигами-сама с Косой Смерти. Будущее покрыто мраком)
    49. Asura Awakening - Towards the End of the World (Пробуждение Асуры. Грядёт Конец Света?)
    50. Taking a Gamble! - The Men Who Surpass God (Утонуть или всплыть?! Те, кто удивил Богов)
    51. The Password Is Courage! (Загадка Смелости!)

    1) Soul Eater(Эта Раздача)
    2) Soul Eater Not!


    General
    Unique ID : 329596872443399577067921537588388948317 (0xF7F60C72759D63B85BEB8612D7E3E95D)
    Complete name : D: 1. Resonance of the Soul - Soul=Eater, Want To Become A Death Scythe.mkv
    Format : Matroska
    Format version : Version 4
    File size : 772 MiB
    Duration : 23 min 36 s
    Overall bit rate mode : Variable
    Overall bit rate : 4 572 kb/s
    Encoded date : UTC 2020-02-28 14: 19: 04
    Writing application : mkvmerge v43.0.0 (\'The Quartermaster\') 64-bit
    Writing library : libebml v1.3.10 + libmatroska v1.5.2
    Attachments : DS Goose.ttf
    Video
    ID : 1
    Format : AVC
    Format/Info : Advanced Video Codec
    Format profile : High@L5
    Format settings : CABAC/5 Ref Frames
    Format settings, CABAC : Yes
    Format settings, Reference : 5 frames
    Codec ID : V_MPEG4/ISO/AVC
    Duration : 23 min 35 s
    Bit rate : 3 357 kb/s
    Width : 1 920 pixels
    Height : 1 080 pixels
    Display aspect ratio : 16: 9
    Frame rate mode : Constant
    Frame rate : 23.976 (23976/1000) FPS
    Original frame rate : 23.976 (24000/1001) FPS
    Color space : YUV
    Chroma subsampling : 4: 2: 0
    Bit depth : 8 bits
    Scan type : Progressive
    Bits/(Pixel*Frame) : 0.068
    Stream size : 566 MiB (73%)
    Writing library : x264 core 148 r2638 7599210
    Encoding settings : cabac=1/ref=5/deblock=1: 1: 1/analyse=0x3: 0x113/me=umh/subme=9/psy=1/psy_rd=0.70: 0.00/mixed_ref=1/me_range=32/chroma_me=1/trellis=0/8x8dct=1/cqm=0/deadzone=21, 11/fast_pskip=0/chroma_qp_offset=-2/threads=12/lookahead_threads=1/sliced_threads=0/nr=0/decimate=1/interlaced=0/bluray_compat=0/constrained_intra=0/bframes=3/b_pyramid=2/b_adapt=2/b_bias=0/direct=1/weightb=1/open_gop=0/weightp=2/keyint=240/keyint_min=23/scenecut=40/intra_refresh=0/rc_lookahead=40/rc=crf/mbtree=1/crf=17.0/qcomp=0.60/qpmin=0/qpmax=69/qpstep=4/ip_ratio=1.40/aq=1: 1.00
    Language : Japanese
    Default : Yes
    Forced : No
    Audio #1
    ID : 2
    Format : Opus
    Codec ID : A_OPUS
    Duration : 23 min 34 s
    Bit rate : 127 kb/s
    Channel(s) : 2 channels
    Channel layout : L R
    Sampling rate : 48.0 kHz
    Frame rate : 50.000 FPS (960 SPF)
    Compression mode : Lossy
    Stream size : 21.4 MiB (3%)
    Title : AniDub
    Language : Russian
    Default : Yes
    Forced : No
    Audio #2
    ID : 3
    Format : AAC LC
    Format/Info : Advanced Audio Codec Low Complexity
    Codec ID : A_AAC-2
    Duration : 23 min 34 s
    Bit rate : 182 kb/s
    Channel(s) : 2 channels
    Channel layout : L R
    Sampling rate : 48.0 kHz
    Frame rate : 46.875 FPS (1024 SPF)
    Compression mode : Lossy
    Stream size : 30.8 MiB (4%)
    Title : MiraiDub
    Language : Russian
    Default : No
    Forced : No
    Audio #3
    ID : 4
    Format : AAC LC
    Format/Info : Advanced Audio Codec Low Complexity
    Codec ID : A_AAC-2
    Duration : 23 min 34 s
    Bit rate : 265 kb/s
    Channel(s) : 2 channels
    Channel layout : L R
    Sampling rate : 48.0 kHz
    Frame rate : 46.875 FPS (1024 SPF)
    Compression mode : Lossy
    Stream size : 43.8 MiB (6%)
    Title : AniLibria
    Language : Russian
    Default : No
    Forced : No
    Audio #4
    ID : 5
    Format : FLAC
    Format/Info : Free Lossless Audio Codec
    Codec ID : A_FLAC
    Duration : 23 min 35 s
    Bit rate mode : Variable
    Bit rate : 645 kb/s
    Channel(s) : 2 channels
    Channel layout : L R
    Sampling rate : 48.0 kHz
    Frame rate : 11.721 FPS (4095 SPF)
    Bit depth : 16 bits
    Compression mode : Lossless
    Stream size : 109 MiB (14%)
    Title : Original
    Writing library : libFLAC 1.3.1 (UTC 2014-11-25)
    Language : Japanese
    Default : No
    Forced : No
    Text #1
    ID : 6
    Format : ASS
    Codec ID : S_TEXT/ASS
    Codec ID/Info : Advanced Sub Station Alpha
    Duration : 22 min 53 s
    Bit rate : 17 b/s
    Count of elements : 39
    Compression mode : Lossless
    Stream size : 3.00 KiB (0%)
    Title : Forced
    Language : Russian
    Default : Yes
    Forced : No
    Text #2
    ID : 7
    Format : ASS
    Codec ID : S_TEXT/ASS
    Codec ID/Info : Advanced Sub Station Alpha
    Duration : 23 min 33 s
    Bit rate : 160 b/s
    Count of elements : 362
    Compression mode : Lossless
    Stream size : 27.7 KiB (0%)
    Title : Full
    Language : Russian
    Default : No
    Forced : No
    Menu
    00: 00: 00.000 : en: Prologue
    00: 01: 09.861 : en: OP
    00: 02: 40.035 : en: Part A
    00: 15: 00.983 : en: Part B
    00: 21: 36.003 : en: ED
    00: 23: 06.010 : en: Preview



    General
    Unique ID : 290462497766713177605838569758523250982 (0xDA850ACEBC703D3FFE9AF727FD1DD926)
    Complete name : D: 2. I m a Star For Sure! - I m an Extremely Big Man, Can You Shoot Me Here.mkv
    Format : Matroska
    Format version : Version 4
    File size : 836 MiB
    Duration : 24 min 30 s
    Overall bit rate mode : Variable
    Overall bit rate : 4 767 kb/s
    Encoded date : UTC 2020-02-28 14: 19: 45
    Writing application : mkvmerge v43.0.0 (\'The Quartermaster\') 64-bit
    Writing library : libebml v1.3.10 + libmatroska v1.5.2
    Attachments : DS Goose.ttf
    Video
    ID : 1
    Format : AVC
    Format/Info : Advanced Video Codec
    Format profile : High@L5
    Format settings : CABAC/5 Ref Frames
    Format settings, CABAC : Yes
    Format settings, Reference : 5 frames
    Codec ID : V_MPEG4/ISO/AVC
    Duration : 23 min 34 s
    Bit rate : 3 680 kb/s
    Width : 1 920 pixels
    Height : 1 080 pixels
    Display aspect ratio : 16: 9
    Frame rate mode : Constant
    Frame rate : 23.976 (24000/1001) FPS
    Color space : YUV
    Chroma subsampling : 4: 2: 0
    Bit depth : 8 bits
    Scan type : Progressive
    Bits/(Pixel*Frame) : 0.074
    Stream size : 621 MiB (74%)
    Writing library : x264 core 148 r2638 7599210
    Encoding settings : cabac=1/ref=5/deblock=1: 1: 1/analyse=0x3: 0x113/me=umh/subme=9/psy=1/psy_rd=0.70: 0.00/mixed_ref=1/me_range=32/chroma_me=1/trellis=0/8x8dct=1/cqm=0/deadzone=21, 11/fast_pskip=0/chroma_qp_offset=-2/threads=12/lookahead_threads=1/sliced_threads=0/nr=0/decimate=1/interlaced=0/bluray_compat=0/constrained_intra=0/bframes=3/b_pyramid=2/b_adapt=2/b_bias=0/direct=1/weightb=1/open_gop=0/weightp=2/keyint=240/keyint_min=23/scenecut=40/intra_refresh=0/rc_lookahead=40/rc=crf/mbtree=1/crf=17.0/qcomp=0.60/qpmin=0/qpmax=69/qpstep=4/ip_ratio=1.40/aq=1: 1.00
    Language : Japanese
    Default : Yes
    Forced : No
    Audio #1
    ID : 2
    Format : Opus
    Codec ID : A_OPUS
    Duration : 23 min 34 s
    Bit rate : 127 kb/s
    Channel(s) : 2 channels
    Channel layout : L R
    Sampling rate : 48.0 kHz
    Frame rate : 50.000 FPS (960 SPF)
    Compression mode : Lossy
    Stream size : 21.5 MiB (3%)
    Title : AniDub
    Language : Russian
    Default : Yes
    Forced : No
    Audio #2
    ID : 3
    Format : AAC LC
    Format/Info : Advanced Audio Codec Low Complexity
    Codec ID : A_AAC-2
    Duration : 23 min 34 s
    Bit rate : 186 kb/s
    Channel(s) : 2 channels
    Channel layout : L R
    Sampling rate : 48.0 kHz
    Frame rate : 46.875 FPS (1024 SPF)
    Compression mode : Lossy
    Stream size : 31.4 MiB (4%)
    Title : MiraiDub
    Language : Russian
    Default : No
    Forced : No
    Audio #3
    ID : 4
    Format : AAC LC
    Format/Info : Advanced Audio Codec Low Complexity
    Codec ID : A_AAC-2
    Duration : 23 min 34 s
    Bit rate : 272 kb/s
    Channel(s) : 2 channels
    Channel layout : L R
    Sampling rate : 48.0 kHz
    Frame rate : 46.875 FPS (1024 SPF)
    Compression mode : Lossy
    Stream size : 45.9 MiB (5%)
    Title : AniLibria
    Language : Russian
    Default : No
    Forced : No
    Audio #4
    ID : 5
    Format : FLAC
    Format/Info : Free Lossless Audio Codec
    Codec ID : A_FLAC
    Duration : 23 min 34 s
    Bit rate mode : Variable
    Bit rate : 685 kb/s
    Channel(s) : 2 channels
    Channel layout : L R
    Sampling rate : 48.0 kHz
    Frame rate : 11.721 FPS (4095 SPF)
    Bit depth : 16 bits
    Compression mode : Lossless
    Stream size : 116 MiB (14%)
    Title : Original
    Writing library : libFLAC 1.3.1 (UTC 2014-11-25)
    Language : Japanese
    Default : No
    Forced : No
    Text #1
    ID : 6
    Format : ASS
    Codec ID : S_TEXT/ASS
    Codec ID/Info : Advanced Sub Station Alpha
    Duration : 23 min 51 s
    Bit rate : 17 b/s
    Count of elements : 31
    Compression mode : Lossless
    Stream size : 3.05 KiB (0%)
    Title : Forced
    Language : Russian
    Default : Yes
    Forced : No
    Text #2
    ID : 7
    Format : ASS
    Codec ID : S_TEXT/ASS
    Codec ID/Info : Advanced Sub Station Alpha
    Duration : 24 min 28 s
    Bit rate : 164 b/s
    Count of elements : 377
    Compression mode : Lossless
    Stream size : 29.5 KiB (0%)
    Title : Full
    Language : Russian
    Default : No
    Forced : No
    Menu
    00: 00: 00.000 : en: Prologue
    00: 01: 09.861 : en: OP
    00: 02: 40.035 : en: Part A
    00: 10: 51.985 : en: Part B
    00: 21: 35.961 : en: ED
    00: 23: 05.968 : en: Preview



    General
    Unique ID : 249571179327494420848025846985130767402 (0xBBC1A9270FD25A3C4393806FAEFBF42A)
    Complete name : D: 3. Becoming A Flawless Boy - Death the Kid`s Mission of Splendor.mkv
    Format : Matroska
    Format version : Version 4
    File size : 839 MiB
    Duration : 24 min 31 s
    Overall bit rate mode : Variable
    Overall bit rate : 4 784 kb/s
    Encoded date : UTC 2020-02-28 14: 21: 22
    Writing application : mkvmerge v43.0.0 (\'The Quartermaster\') 64-bit
    Writing library : libebml v1.3.10 + libmatroska v1.5.2
    Attachments : DS Goose.ttf
    Video
    ID : 1
    Format : AVC
    Format/Info : Advanced Video Codec
    Format profile : High@L5
    Format settings : CABAC/5 Ref Frames
    Format settings, CABAC : Yes
    Format settings, Reference : 5 frames
    Codec ID : V_MPEG4/ISO/AVC
    Duration : 23 min 34 s
    Bit rate : 3 665 kb/s
    Width : 1 920 pixels
    Height : 1 080 pixels
    Display aspect ratio : 16: 9
    Frame rate mode : Constant
    Frame rate : 23.976 (24000/1001) FPS
    Color space : YUV
    Chroma subsampling : 4: 2: 0
    Bit depth : 8 bits
    Scan type : Progressive
    Bits/(Pixel*Frame) : 0.074
    Stream size : 618 MiB (74%)
    Writing library : x264 core 148 r2638 7599210
    Encoding settings : cabac=1/ref=5/deblock=1: 1: 1/analyse=0x3: 0x113/me=umh/subme=9/psy=1/psy_rd=0.70: 0.00/mixed_ref=1/me_range=32/chroma_me=1/trellis=0/8x8dct=1/cqm=0/deadzone=21, 11/fast_pskip=0/chroma_qp_offset=-2/threads=12/lookahead_threads=1/sliced_threads=0/nr=0/decimate=1/interlaced=0/bluray_compat=0/constrained_intra=0/bframes=3/b_pyramid=2/b_adapt=2/b_bias=0/direct=1/weightb=1/open_gop=0/weightp=2/keyint=240/keyint_min=23/scenecut=40/intra_refresh=0/rc_lookahead=40/rc=crf/mbtree=1/crf=17.0/qcomp=0.60/qpmin=0/qpmax=69/qpstep=4/ip_ratio=1.40/aq=1: 1.00
    Language : Japanese
    Default : Yes
    Forced : No
    Audio #1
    ID : 2
    Format : Opus
    Codec ID : A_OPUS
    Duration : 23 min 34 s
    Bit rate : 126 kb/s
    Channel(s) : 2 channels
    Channel layout : L R
    Sampling rate : 48.0 kHz
    Frame rate : 50.000 FPS (960 SPF)
    Compression mode : Lossy
    Stream size : 21.2 MiB (3%)
    Title : AniDub
    Language : Russian
    Default : Yes
    Forced : No
    Audio #2
    ID : 3
    Format : AAC LC
    Format/Info : Advanced Audio Codec Low Complexity
    Codec ID : A_AAC-2
    Duration : 23 min 34 s
    Bit rate : 187 kb/s
    Channel(s) : 2 channels
    Channel layout : L R
    Sampling rate : 48.0 kHz
    Frame rate : 46.875 FPS (1024 SPF)
    Compression mode : Lossy
    Stream size : 31.5 MiB (4%)
    Title : MiraiDub
    Language : Russian
    Default : No
    Forced : No
    Audio #3
    ID : 4
    Format : AAC LC
    Format/Info : Advanced Audio Codec Low Complexity
    Codec ID : A_AAC-2
    Duration : 23 min 34 s
    Bit rate : 277 kb/s
    Channel(s) : 2 channels
    Channel layout : L R
    Sampling rate : 48.0 kHz
    Frame rate : 46.875 FPS (1024 SPF)
    Compression mode : Lossy
    Stream size : 46.7 MiB (6%)
    Title : AniLibria
    Language : Russian
    Default : No
    Forced : No
    Audio #4
    ID : 5
    Format : FLAC
    Format/Info : Free Lossless Audio Codec
    Codec ID : A_FLAC
    Duration : 23 min 34 s
    Bit rate mode : Variable
    Bit rate : 714 kb/s
    Channel(s) : 2 channels
    Channel layout : L R
    Sampling rate : 48.0 kHz
    Frame rate : 11.721 FPS (4095 SPF)
    Bit depth : 16 bits
    Compression mode : Lossless
    Stream size : 120 MiB (14%)
    Title : Original
    Writing library : libFLAC 1.3.1 (UTC 2014-11-25)
    Language : Japanese
    Default : No
    Forced : No
    Text #1
    ID : 6
    Format : ASS
    Codec ID : S_TEXT/ASS
    Codec ID/Info : Advanced Sub Station Alpha
    Duration : 23 min 51 s
    Bit rate : 17 b/s
    Count of elements : 31
    Compression mode : Lossless
    Stream size : 3.04 KiB (0%)
    Title : Forced
    Language : Russian
    Default : Yes
    Forced : No
    Text #2
    ID : 7
    Format : ASS
    Codec ID : S_TEXT/ASS
    Codec ID/Info : Advanced Sub Station Alpha
    Duration : 24 min 28 s
    Bit rate : 179 b/s
    Count of elements : 395
    Compression mode : Lossless
    Stream size : 32.2 KiB (0%)
    Title : Full
    Language : Russian
    Default : No
    Forced : No
    Menu
    00: 00: 00.000 : en: Prologue
    00: 01: 09.861 : en: OP
    00: 02: 40.035 : en: Part A
    00: 12: 58.987 : en: Part B
    00: 21: 35.961 : en: ED
    00: 23: 05.968 : en: Preview



    General
    Unique ID : 251220015302790015495306692910691557745 (0xBCFF370AE6FED4CE0AE0DAB6C8A2A171)
    Complete name : D: 4. Witch Hunting Invocation! - Heart Throbbing Graveyard Supplementary Class Lessons.mkv
    Format : Matroska
    Format version : Version 4
    File size : 678 MiB
    Duration : 24 min 26 s
    Overall bit rate mode : Variable
    Overall bit rate : 3 875 kb/s
    Encoded date : UTC 2020-02-28 14: 22: 03
    Writing application : mkvmerge v43.0.0 (\'The Quartermaster\') 64-bit
    Writing library : libebml v1.3.10 + libmatroska v1.5.2
    Attachments : DS Goose.ttf
    Video
    ID : 1
    Format : AVC
    Format/Info : Advanced Video Codec
    Format profile : High@L5
    Format settings : CABAC/5 Ref Frames
    Format settings, CABAC : Yes
    Format settings, Reference : 5 frames
    Codec ID : V_MPEG4/ISO/AVC
    Duration : 23 min 35 s
    Bit rate : 2 739 kb/s
    Width : 1 920 pixels
    Height : 1 080 pixels
    Display aspect ratio : 16: 9
    Frame rate mode : Constant
    Frame rate : 23.976 (24000/1001) FPS
    Color space : YUV
    Chroma subsampling : 4: 2: 0
    Bit depth : 8 bits
    Scan type : Progressive
    Bits/(Pixel*Frame) : 0.055
    Stream size : 462 MiB (68%)
    Writing library : x264 core 148 r2638 7599210
    Encoding settings : cabac=1/ref=5/deblock=1: 1: 1/analyse=0x3: 0x113/me=umh/subme=9/psy=1/psy_rd=0.70: 0.00/mixed_ref=1/me_range=32/chroma_me=1/trellis=0/8x8dct=1/cqm=0/deadzone=21, 11/fast_pskip=0/chroma_qp_offset=-2/threads=12/lookahead_threads=1/sliced_threads=0/nr=0/decimate=1/interlaced=0/bluray_compat=0/constrained_intra=0/bframes=3/b_pyramid=2/b_adapt=2/b_bias=0/direct=1/weightb=1/open_gop=0/weightp=2/keyint=240/keyint_min=23/scenecut=40/intra_refresh=0/rc_lookahead=40/rc=crf/mbtree=1/crf=17.0/qcomp=0.60/qpmin=0/qpmax=69/qpstep=4/ip_ratio=1.40/aq=1: 1.00
    Language : Japanese
    Default : Yes
    Forced : No
    Audio #1
    ID : 2
    Format : Opus
    Codec ID : A_OPUS
    Duration : 23 min 35 s
    Bit rate : 127 kb/s
    Channel(s) : 2 channels
    Channel layout : L R
    Sampling rate : 48.0 kHz
    Frame rate : 50.001 FPS (960 SPF)
    Compression mode : Lossy
    Stream size : 21.5 MiB (3%)
    Title : AniDub
    Language : Russian
    Default : Yes
    Forced : No
    Audio #2
    ID : 3
    Format : AAC LC
    Format/Info : Advanced Audio Codec Low Complexity
    Codec ID : A_AAC-2
    Duration : 23 min 35 s
    Bit rate : 186 kb/s
    Channel(s) : 2 channels
    Channel layout : L R
    Sampling rate : 48.0 kHz
    Frame rate : 46.875 FPS (1024 SPF)
    Compression mode : Lossy
    Stream size : 31.4 MiB (5%)
    Title : MiraiDub
    Language : Russian
    Default : No
    Forced : No
    Audio #3
    ID : 4
    Format : AAC LC
    Format/Info : Advanced Audio Codec Low Complexity
    Codec ID : A_AAC-2
    Duration : 23 min 35 s
    Bit rate : 272 kb/s
    Channel(s) : 2 channels
    Channel layout : L R
    Sampling rate : 48.0 kHz
    Frame rate : 46.875 FPS (1024 SPF)
    Compression mode : Lossy
    Stream size : 45.9 MiB (7%)
    Title : AniLibria
    Language : Russian
    Default : No
    Forced : No
    Audio #4
    ID : 5
    Format : FLAC
    Format/Info : Free Lossless Audio Codec
    Codec ID : A_FLAC
    Duration : 23 min 35 s
    Bit rate mode : Variable
    Bit rate : 687 kb/s
    Channel(s) : 2 channels
    Channel layout : L R
    Sampling rate : 48.0 kHz
    Frame rate : 11.720 FPS (4096 SPF)
    Bit depth : 16 bits
    Compression mode : Lossless
    Stream size : 116 MiB (17%)
    Title : Original
    Writing library : libFLAC 1.3.1 (UTC 2014-11-25)
    Language : Japanese
    Default : No
    Forced : No
    Text #1
    ID : 6
    Format : ASS
    Codec ID : S_TEXT/ASS
    Codec ID/Info : Advanced Sub Station Alpha
    Duration : 22 min 1 s
    Bit rate : 13 b/s
    Count of elements : 25
    Compression mode : Lossless
    Stream size : 2.15 KiB (0%)
    Title : Forced
    Language : Russian
    Default : Yes
    Forced : No
    Text #2
    ID : 7
    Format : ASS
    Codec ID : S_TEXT/ASS
    Codec ID/Info : Advanced Sub Station Alpha
    Duration : 24 min 25 s
    Bit rate : 158 b/s
    Count of elements : 377
    Compression mode : Lossless
    Stream size : 28.3 KiB (0%)
    Title : Full
    Language : Russian
    Default : No
    Forced : No
    Menu
    00: 00: 00.000 : en: Prologue
    00: 02: 21.892 : en: OP
    00: 03: 52.023 : en: Part A
    00: 10: 13.071 : en: Part B
    00: 21: 36.045 : en: ED
    00: 23: 06.051 : en: Preview



    General
    Unique ID : 260990167981421612537395129378008289761 (0xC458E0C2AE85EB7B67E3B0E04CC551E1)
    Complete name : D: 5. Souls Form - Strongest Worker Stein`s Entrance.mkv
    Format : Matroska
    Format version : Version 4
    File size : 742 MiB
    Duration : 23 min 35 s
    Overall bit rate mode : Variable
    Overall bit rate : 4 401 kb/s
    Encoded date : UTC 2020-02-28 14: 22: 40
    Writing application : mkvmerge v43.0.0 (\'The Quartermaster\') 64-bit
    Writing library : libebml v1.3.10 + libmatroska v1.5.2
    Attachments : DS Goose.ttf
    Video
    ID : 1
    Format : AVC
    Format/Info : Advanced Video Codec
    Format profile : High@L5
    Format settings : CABAC/5 Ref Frames
    Format settings, CABAC : Yes
    Format settings, Reference : 5 frames
    Codec ID : V_MPEG4/ISO/AVC
    Duration : 23 min 35 s
    Bit rate : 3 123 kb/s
    Width : 1 920 pixels
    Height : 1 080 pixels
    Display aspect ratio : 16: 9
    Frame rate mode : Constant
    Frame rate : 23.976 (24000/1001) FPS
    Color space : YUV
    Chroma subsampling : 4: 2: 0
    Bit depth : 8 bits
    Scan type : Progressive
    Bits/(Pixel*Frame) : 0.063
    Stream size : 527 MiB (71%)
    Writing library : x264 core 148 r2638 7599210
    Encoding settings : cabac=1/ref=5/deblock=1: 1: 1/analyse=0x3: 0x113/me=umh/subme=9/psy=1/psy_rd=0.70: 0.00/mixed_ref=1/me_range=32/chroma_me=1/trellis=0/8x8dct=1/cqm=0/deadzone=21, 11/fast_pskip=0/chroma_qp_offset=-2/threads=12/lookahead_threads=1/sliced_threads=0/nr=0/decimate=1/interlaced=0/bluray_compat=0/constrained_intra=0/bframes=3/b_pyramid=2/b_adapt=2/b_bias=0/direct=1/weightb=1/open_gop=0/weightp=2/keyint=240/keyint_min=23/scenecut=40/intra_refresh=0/rc_lookahead=40/rc=crf/mbtree=1/crf=17.0/qcomp=0.60/qpmin=0/qpmax=69/qpstep=4/ip_ratio=1.40/aq=1: 1.00
    Language : Japanese
    Default : Yes
    Forced : No
    Audio #1
    ID : 2
    Format : Opus
    Codec ID : A_OPUS
    Duration : 23 min 35 s
    Bit rate : 127 kb/s
    Channel(s) : 2 channels
    Channel layout : L R
    Sampling rate : 48.0 kHz
    Frame rate : 50.000 FPS (960 SPF)
    Compression mode : Lossy
    Stream size : 21.4 MiB (3%)
    Title : AniDub
    Language : Russian
    Default : Yes
    Forced : No
    Audio #2
    ID : 3
    Format : AAC LC
    Format/Info : Advanced Audio Codec Low Complexity
    Codec ID : A_AAC-2
    Duration : 23 min 35 s
    Bit rate : 184 kb/s
    Channel(s) : 2 channels
    Channel layout : L R
    Sampling rate : 48.0 kHz
    Frame rate : 46.875 FPS (1024 SPF)
    Compression mode : Lossy
    Stream size : 31.1 MiB (4%)
    Title : MiraiDub
    Language : Russian
    Default : No
    Forced : No
    Audio #3
    ID : 4
    Format : AAC LC
    Format/Info : Advanced Audio Codec Low Complexity
    Codec ID : A_AAC-2
    Duration : 23 min 35 s
    Bit rate : 273 kb/s
    Channel(s) : 2 channels
    Channel layout : L R
    Sampling rate : 48.0 kHz
    Frame rate : 46.875 FPS (1024 SPF)
    Compression mode : Lossy
    Stream size : 46.1 MiB (6%)
    Title : AniLibria
    Language : Russian
    Default : No
    Forced : No
    Audio #4
    ID : 5
    Format : FLAC
    Format/Info : Free Lossless Audio Codec
    Codec ID : A_FLAC
    Duration : 23 min 35 s
    Bit rate mode : Variable
    Bit rate : 689 kb/s
    Channel(s) : 2 channels
    Channel layout : L R
    Sampling rate : 48.0 kHz
    Frame rate : 11.721 FPS (4095 SPF)
    Bit depth : 16 bits
    Compression mode : Lossless
    Stream size : 116 MiB (16%)
    Title : Original
    Writing library : libFLAC 1.3.1 (UTC 2014-11-25)
    Language : Japanese
    Default : No
    Forced : No
    Text #1
    ID : 6
    Format : ASS
    Codec ID : S_TEXT/ASS
    Codec ID/Info : Advanced Sub Station Alpha
    Duration : 23 min 27 s
    Bit rate : 20 b/s
    Count of elements : 48
    Compression mode : Lossless
    Stream size : 3.54 KiB (0%)
    Title : Forced
    Language : Russian
    Default : Yes
    Forced : No
    Text #2
    ID : 7
    Format : ASS
    Codec ID : S_TEXT/ASS
    Codec ID/Info : Advanced Sub Station Alpha
    Duration : 23 min 27 s
    Bit rate : 189 b/s
    Count of elements : 381
    Compression mode : Lossless
    Stream size : 32.5 KiB (0%)
    Title : Full
    Language : Russian
    Default : No
    Forced : No
    Menu
    00: 00: 00.000 : en: Prologue
    00: 00: 57.933 : en: OP
    00: 02: 28.023 : en: Part A
    00: 13: 39.027 : en: Part B
    00: 21: 36.045 : en: ED
    00: 23: 06.051 : en: Preview



    General
    Unique ID : 262547892748043433257383288581167040140 (0xC584E28564B92DF9D2F277CC91F0C68C)
    Complete name : D: 6. Freshman Gossip! - Lots of Memories of Kids First Attendance at Shibusen.mkv
    Format : Matroska
    Format version : Version 4
    File size : 734 MiB
    Duration : 23 min 36 s
    Overall bit rate mode : Variable
    Overall bit rate : 4 348 kb/s
    Encoded date : UTC 2020-02-28 14: 23: 32
    Writing application : mkvmerge v43.0.0 (\'The Quartermaster\') 64-bit
    Writing library : libebml v1.3.10 + libmatroska v1.5.2
    Attachments : DS Goose.ttf
    Video
    ID : 1
    Format : AVC
    Format/Info : Advanced Video Codec
    Format profile : High@L5
    Format settings : CABAC/5 Ref Frames
    Format settings, CABAC : Yes
    Format settings, Reference : 5 frames
    Codec ID : V_MPEG4/ISO/AVC
    Duration : 23 min 36 s
    Bit rate : 3 041 kb/s
    Width : 1 920 pixels
    Height : 1 080 pixels
    Display aspect ratio : 16: 9
    Frame rate mode : Constant
    Frame rate : 23.976 (23976/1000) FPS
    Original frame rate : 23.976 (24000/1001) FPS
    Color space : YUV
    Chroma subsampling : 4: 2: 0
    Bit depth : 8 bits
    Scan type : Progressive
    Bits/(Pixel*Frame) : 0.061
    Stream size : 513 MiB (70%)
    Writing library : x264 core 148 r2638 7599210
    Encoding settings : cabac=1/ref=5/deblock=1: 1: 1/analyse=0x3: 0x113/me=umh/subme=9/psy=1/psy_rd=0.70: 0.00/mixed_ref=1/me_range=32/chroma_me=1/trellis=0/8x8dct=1/cqm=0/deadzone=21, 11/fast_pskip=0/chroma_qp_offset=-2/threads=12/lookahead_threads=1/sliced_threads=0/nr=0/decimate=1/interlaced=0/bluray_compat=0/constrained_intra=0/bframes=3/b_pyramid=2/b_adapt=2/b_bias=0/direct=1/weightb=1/open_gop=0/weightp=2/keyint=240/keyint_min=23/scenecut=40/intra_refresh=0/rc_lookahead=40/rc=crf/mbtree=1/crf=17.0/qcomp=0.60/qpmin=0/qpmax=69/qpstep=4/ip_ratio=1.40/aq=1: 1.00
    Language : Japanese
    Default : Yes
    Forced : No
    Audio #1
    ID : 2
    Format : Opus
    Codec ID : A_OPUS
    Duration : 23 min 35 s
    Bit rate : 127 kb/s
    Channel(s) : 2 channels
    Channel layout : L R
    Sampling rate : 48.0 kHz
    Frame rate : 50.000 FPS (960 SPF)
    Compression mode : Lossy
    Stream size : 21.4 MiB (3%)
    Title : AniDub
    Language : Russian
    Default : Yes
    Forced : No
    Audio #2
    ID : 3
    Format : AAC LC
    Format/Info : Advanced Audio Codec Low Complexity
    Codec ID : A_AAC-2
    Duration : 23 min 36 s
    Bit rate : 185 kb/s
    Channel(s) : 2 channels
    Channel layout : L R
    Sampling rate : 48.0 kHz
    Frame rate : 46.875 FPS (1024 SPF)
    Compression mode : Lossy
    Stream size : 31.2 MiB (4%)
    Title : MiraiDub
    Language : Russian
    Default : No
    Forced : No
    Audio #3
    ID : 4
    Format : AAC LC
    Format/Info : Advanced Audio Codec Low Complexity
    Codec ID : A_AAC-2
    Duration : 23 min 36 s
    Bit rate : 282 kb/s
    Channel(s) : 2 channels
    Channel layout : L R
    Sampling rate : 48.0 kHz
    Frame rate : 46.875 FPS (1024 SPF)
    Compression mode : Lossy
    Stream size : 47.6 MiB (6%)
    Title : AniLibria
    Language : Russian
    Default : No
    Forced : No
    Audio #4
    ID : 5
    Format : FLAC
    Format/Info : Free Lossless Audio Codec
    Codec ID : A_FLAC
    Duration : 23 min 36 s
    Bit rate mode : Variable
    Bit rate : 709 kb/s
    Channel(s) : 2 channels
    Channel layout : L R
    Sampling rate : 48.0 kHz
    Frame rate : 11.720 FPS (4096 SPF)
    Bit depth : 16 bits
    Compression mode : Lossless
    Stream size : 120 MiB (16%)
    Title : Original
    Writing library : libFLAC 1.3.1 (UTC 2014-11-25)
    Language : Japanese
    Default : No
    Forced : No
    Text #1
    ID : 6
    Format : ASS
    Codec ID : S_TEXT/ASS
    Codec ID/Info : Advanced Sub Station Alpha
    Duration : 23 min 32 s
    Bit rate : 21 b/s
    Count of elements : 50
    Compression mode : Lossless
    Stream size : 3.68 KiB (0%)
    Title : Forced
    Language : Russian
    Default : Yes
    Forced : No
    Text #2
    ID : 7
    Format : ASS
    Codec ID : S_TEXT/ASS
    Codec ID/Info : Advanced Sub Station Alpha
    Duration : 23 min 32 s
    Bit rate : 173 b/s
    Count of elements : 368
    Compression mode : Lossless
    Stream size : 29.9 KiB (0%)
    Title : Full
    Language : Russian
    Default : No
    Forced : No
    Menu
    00: 00: 00.000 : en: Prologue
    00: 01: 02.854 : en: OP
    00: 02: 32.569 : en: Part A
    00: 09: 06.588 : en: Part B
    00: 21: 35.544 : en: ED
    00: 23: 05.551 : en: Preview



    General
    Unique ID : 238765618981358797437012432236324037303 (0xB3A095E534632E87D3354FB519AFA2B7)
    Complete name : D: 7. Black Blood of Terror - The Weapon Within Chrona.mkv
    Format : Matroska
    Format version : Version 4
    File size : 741 MiB
    Duration : 23 min 34 s
    Overall bit rate mode : Variable
    Overall bit rate : 4 390 kb/s
    Encoded date : UTC 2020-02-28 14: 24: 21
    Writing application : mkvmerge v43.0.0 (\'The Quartermaster\') 64-bit
    Writing library : libebml v1.3.10 + libmatroska v1.5.2
    Attachments : DS Goose.ttf
    Video
    ID : 1
    Format : AVC
    Format/Info : Advanced Video Codec
    Format profile : High@L5
    Format settings : CABAC/5 Ref Frames
    Format settings, CABAC : Yes
    Format settings, Reference : 5 frames
    Codec ID : V_MPEG4/ISO/AVC
    Duration : 23 min 34 s
    Bit rate : 3 099 kb/s
    Width : 1 920 pixels
    Height : 1 080 pixels
    Display aspect ratio : 16: 9
    Frame rate mode : Constant
    Frame rate : 23.976 (24000/1001) FPS
    Color space : YUV
    Chroma subsampling : 4: 2: 0
    Bit depth : 8 bits
    Scan type : Progressive
    Bits/(Pixel*Frame) : 0.062
    Stream size : 523 MiB (71%)
    Writing library : x264 core 148 r2638 7599210
    Encoding settings : cabac=1/ref=5/deblock=1: 1: 1/analyse=0x3: 0x113/me=umh/subme=9/psy=1/psy_rd=0.70: 0.00/mixed_ref=1/me_range=32/chroma_me=1/trellis=0/8x8dct=1/cqm=0/deadzone=21, 11/fast_pskip=0/chroma_qp_offset=-2/threads=12/lookahead_threads=1/sliced_threads=0/nr=0/decimate=1/interlaced=0/bluray_compat=0/constrained_intra=0/bframes=3/b_pyramid=2/b_adapt=2/b_bias=0/direct=1/weightb=1/open_gop=0/weightp=2/keyint=240/keyint_min=23/scenecut=40/intra_refresh=0/rc_lookahead=40/rc=crf/mbtree=1/crf=17.0/qcomp=0.60/qpmin=0/qpmax=69/qpstep=4/ip_ratio=1.40/aq=1: 1.00
    Language : Japanese
    Default : Yes
    Forced : No
    Audio #1
    ID : 2
    Format : Opus
    Codec ID : A_OPUS
    Duration : 23 min 34 s
    Bit rate : 128 kb/s
    Channel(s) : 2 channels
    Channel layout : L R
    Sampling rate : 48.0 kHz
    Frame rate : 50.000 FPS (960 SPF)
    Compression mode : Lossy
    Stream size : 21.7 MiB (3%)
    Title : AniDub
    Language : Russian
    Default : Yes
    Forced : No
    Audio #2
    ID : 3
    Format : AAC LC
    Format/Info : Advanced Audio Codec Low Complexity
    Codec ID : A_AAC-2
    Duration : 23 min 34 s
    Bit rate : 188 kb/s
    Channel(s) : 2 channels
    Channel layout : L R
    Sampling rate : 48.0 kHz
    Frame rate : 46.875 FPS (1024 SPF)
    Compression mode : Lossy
    Stream size : 31.7 MiB (4%)
    Title : MiraiDub
    Language : Russian
    Default : No
    Forced : No
    Audio #3
    ID : 4
    Format : AAC LC
    Format/Info : Advanced Audio Codec Low Complexity
    Codec ID : A_AAC-2
    Duration : 23 min 34 s
    Bit rate : 274 kb/s
    Channel(s) : 2 channels
    Channel layout : L R
    Sampling rate : 48.0 kHz
    Frame rate : 46.875 FPS (1024 SPF)
    Compression mode : Lossy
    Stream size : 46.2 MiB (6%)
    Title : AniLibria
    Language : Russian
    Default : No
    Forced : No
    Audio #4
    ID : 5
    Format : FLAC
    Format/Info : Free Lossless Audio Codec
    Codec ID : A_FLAC
    Duration : 23 min 34 s
    Bit rate mode : Variable
    Bit rate : 697 kb/s
    Channel(s) : 2 channels
    Channel layout : L R
    Sampling rate : 48.0 kHz
    Frame rate : 11.720 FPS (4096 SPF)
    Bit depth : 16 bits
    Compression mode : Lossless
    Stream size : 118 MiB (16%)
    Title : Original
    Writing library : libFLAC 1.3.1 (UTC 2014-11-25)
    Language : Japanese
    Default : No
    Forced : No
    Text #1
    ID : 6
    Format : ASS
    Codec ID : S_TEXT/ASS
    Codec ID/Info : Advanced Sub Station Alpha
    Duration : 23 min 31 s
    Bit rate : 21 b/s
    Count of elements : 50
    Compression mode : Lossless
    Stream size : 3.65 KiB (0%)
    Title : Forced
    Language : Russian
    Default : Yes
    Forced : No
    Text #2
    ID : 7
    Format : ASS
    Codec ID : S_TEXT/ASS
    Codec ID/Info : Advanced Sub Station Alpha
    Duration : 23 min 31 s
    Bit rate : 135 b/s
    Count of elements : 325
    Compression mode : Lossless
    Stream size : 23.3 KiB (0%)
    Title : Full
    Language : Russian
    Default : No
    Forced : No
    Menu
    00: 00: 00.000 : en: Prologue
    00: 01: 08.986 : en: OP
    00: 02: 39.034 : en: Part A
    00: 12: 09.020 : en: Part B
    00: 21: 36.003 : en: ED
    00: 23: 06.010 : en: Preview



    General
    Unique ID : 82435359868012687593485267504841972184 (0x3E047909B92402715DE142A4992959D8)
    Complete name : D: 8. Witch Medusa - Great Evil Possessing Ones Soul.mkv
    Format : Matroska
    Format version : Version 4
    File size : 741 MiB
    Duration : 24 min 29 s
    Overall bit rate mode : Variable
    Overall bit rate : 4 229 kb/s
    Encoded date : UTC 2020-02-28 14: 24: 56
    Writing application : mkvmerge v43.0.0 (\'The Quartermaster\') 64-bit
    Writing library : libebml v1.3.10 + libmatroska v1.5.2
    Attachments : DS Goose.ttf
    Video
    ID : 1
    Format : AVC
    Format/Info : Advanced Video Codec
    Format profile : High@L5
    Format settings : CABAC/5 Ref Frames
    Format settings, CABAC : Yes
    Format settings, Reference : 5 frames
    Codec ID : V_MPEG4/ISO/AVC
    Duration : 23 min 35 s
    Bit rate : 3 099 kb/s
    Width : 1 920 pixels
    Height : 1 080 pixels
    Display aspect ratio : 16: 9
    Frame rate mode : Constant
    Frame rate : 23.976 (23976/1000) FPS
    Original frame rate : 23.976 (24000/1001) FPS
    Color space : YUV
    Chroma subsampling : 4: 2: 0
    Bit depth : 8 bits
    Scan type : Progressive
    Bits/(Pixel*Frame) : 0.062
    Stream size : 523 MiB (71%)
    Writing library : x264 core 148 r2638 7599210
    Encoding settings : cabac=1/ref=5/deblock=1: 1: 1/analyse=0x3: 0x113/me=umh/subme=9/psy=1/psy_rd=0.70: 0.00/mixed_ref=1/me_range=32/chroma_me=1/trellis=0/8x8dct=1/cqm=0/deadzone=21, 11/fast_pskip=0/chroma_qp_offset=-2/threads=12/lookahead_threads=1/sliced_threads=0/nr=0/decimate=1/interlaced=0/bluray_compat=0/constrained_intra=0/bframes=3/b_pyramid=2/b_adapt=2/b_bias=0/direct=1/weightb=1/open_gop=0/weightp=2/keyint=240/keyint_min=23/scenecut=40/intra_refresh=0/rc_lookahead=40/rc=crf/mbtree=1/crf=17.0/qcomp=0.60/qpmin=0/qpmax=69/qpstep=4/ip_ratio=1.40/aq=1: 1.00
    Language : Japanese
    Default : Yes
    Forced : No
    Audio #1
    ID : 2
    Format : Opus
    Codec ID : A_OPUS
    Duration : 23 min 34 s
    Bit rate : 127 kb/s
    Channel(s) : 2 channels
    Channel layout : L R
    Sampling rate : 48.0 kHz
    Frame rate : 50.000 FPS (960 SPF)
    Compression mode : Lossy
    Stream size : 21.5 MiB (3%)
    Title : AniDub
    Language : Russian
    Default : Yes
    Forced : No
    Audio #2
    ID : 3
    Format : AAC LC
    Format/Info : Advanced Audio Codec Low Complexity
    Codec ID : A_AAC-2
    Duration : 23 min 34 s
    Bit rate : 192 kb/s
    Channel(s) : 2 channels
    Channel layout : L R
    Sampling rate : 48.0 kHz
    Frame rate : 46.875 FPS (1024 SPF)
    Compression mode : Lossy
    Stream size : 32.5 MiB (4%)
    Title : MiraiDub
    Language : Russian
    Default : No
    Forced : No
    Audio #3
    ID : 4
    Format : AAC LC
    Format/Info : Advanced Audio Codec Low Complexity
    Codec ID : A_AAC-2
    Duration : 23 min 34 s
    Bit rate : 274 kb/s
    Channel(s) : 2 channels
    Channel layout : L R
    Sampling rate : 48.0 kHz
    Frame rate : 46.875 FPS (1024 SPF)
    Compression mode : Lossy
    Stream size : 46.3 MiB (6%)
    Title : AniLibria
    Language : Russian
    Default : No
    Forced : No
    Audio #4
    ID : 5
    Format : FLAC
    Format/Info : Free Lossless Audio Codec
    Codec ID : A_FLAC
    Duration : 23 min 35 s
    Bit rate mode : Variable
    Bit rate : 694 kb/s
    Channel(s) : 2 channels
    Channel layout : L R
    Sampling rate : 48.0 kHz
    Frame rate : 11.719 FPS (4096 SPF)
    Bit depth : 16 bits
    Compression mode : Lossless
    Stream size : 117 MiB (16%)
    Title : Original
    Writing library : libFLAC 1.3.1 (UTC 2014-11-25)
    Language : Japanese
    Default : No
    Forced : No
    Text #1
    ID : 6
    Format : ASS
    Codec ID : S_TEXT/ASS
    Codec ID/Info : Advanced Sub Station Alpha
    Duration : 24 min 28 s
    Bit rate : 20 b/s
    Count of elements : 52
    Compression mode : Lossless
    Stream size : 3.71 KiB (0%)
    Title : Forced
    Language : Russian
    Default : Yes
    Forced : No
    Text #2
    ID : 7
    Format : ASS
    Codec ID : S_TEXT/ASS
    Codec ID/Info : Advanced Sub Station Alpha
    Duration : 24 min 28 s
    Bit rate : 126 b/s
    Count of elements : 324
    Compression mode : Lossless
    Stream size : 22.7 KiB (0%)
    Title : Full
    Language : Russian
    Default : No
    Forced : No
    Menu
    00: 00: 00.000 : en: Prologue
    00: 01: 35.012 : en: OP
    00: 03: 04.976 : en: Part A
    00: 12: 50.019 : en: Part B
    00: 21: 36.003 : en: ED
    00: 23: 06.010 : en: Preview



    General
    Unique ID : 337134545565614859452822125158141848860 (0xFDA1C06CBD17EB612BC085F9B964ED1C)
    Complete name : D: 9. Holy Legendary Sword - Kid and Black Stars Big Adventure.mkv
    Format : Matroska
    Format version : Version 4
    File size : 738 MiB
    Duration : 23 min 34 s
    Overall bit rate mode : Variable
    Overall bit rate : 4 375 kb/s
    Encoded date : UTC 2020-02-28 14: 25: 33
    Writing application : mkvmerge v43.0.0 (\'The Quartermaster\') 64-bit
    Writing library : libebml v1.3.10 + libmatroska v1.5.2
    Attachments : DS Goose.ttf
    Video
    ID : 1
    Format : AVC
    Format/Info : Advanced Video Codec
    Format profile : High@L5
    Format settings : CABAC/5 Ref Frames
    Format settings, CABAC : Yes
    Format settings, Reference : 5 frames
    Codec ID : V_MPEG4/ISO/AVC
    Duration : 23 min 34 s
    Bit rate : 3 130 kb/s
    Width : 1 920 pixels
    Height : 1 080 pixels
    Display aspect ratio : 16: 9
    Frame rate mode : Constant
    Frame rate : 23.976 (24000/1001) FPS
    Color space : YUV
    Chroma subsampling : 4: 2: 0
    Bit depth : 8 bits
    Scan type : Progressive
    Bits/(Pixel*Frame) : 0.063
    Stream size : 528 MiB (72%)
    Writing library : x264 core 148 r2638 7599210
    Encoding settings : cabac=1/ref=5/deblock=1: 1: 1/analyse=0x3: 0x113/me=umh/subme=9/psy=1/psy_rd=0.70: 0.00/mixed_ref=1/me_range=32/chroma_me=1/trellis=0/8x8dct=1/cqm=0/deadzone=21, 11/fast_pskip=0/chroma_qp_offset=-2/threads=12/lookahead_threads=1/sliced_threads=0/nr=0/decimate=1/interlaced=0/bluray_compat=0/constrained_intra=0/bframes=3/b_pyramid=2/b_adapt=2/b_bias=0/direct=1/weightb=1/open_gop=0/weightp=2/keyint=240/keyint_min=23/scenecut=40/intra_refresh=0/rc_lookahead=40/rc=crf/mbtree=1/crf=17.0/qcomp=0.60/qpmin=0/qpmax=69/qpstep=4/ip_ratio=1.40/aq=1: 1.00
    Language : Japanese
    Default : Yes
    Forced : No
    Audio #1
    ID : 2
    Format : Opus
    Codec ID : A_OPUS
    Duration : 23 min 34 s
    Bit rate : 128 kb/s
    Channel(s) : 2 channels
    Channel layout : L R
    Sampling rate : 48.0 kHz
    Frame rate : 50.000 FPS (960 SPF)
    Compression mode : Lossy
    Stream size : 21.5 MiB (3%)
    Title : AniDub
    Language : Russian
    Default : Yes
    Forced : No
    Audio #2
    ID : 3
    Format : AAC LC
    Format/Info : Advanced Audio Codec Low Complexity
    Codec ID : A_AAC-2
    Duration : 23 min 34 s
    Bit rate : 182 kb/s
    Channel(s) : 2 channels
    Channel layout : L R
    Sampling rate : 48.0 kHz
    Frame rate : 46.875 FPS (1024 SPF)
    Compression mode : Lossy
    Stream size : 30.8 MiB (4%)
    Title : MiraiDub
    Language : Russian
    Default : No
    Forced : No
    Audio #3
    ID : 4
    Format : AAC LC
    Format/Info : Advanced Audio Codec Low Complexity
    Codec ID : A_AAC-2
    Duration : 23 min 34 s
    Bit rate : 265 kb/s
    Channel(s) : 2 channels
    Channel layout : L R
    Sampling rate : 48.0 kHz
    Frame rate : 46.875 FPS (1024 SPF)
    Compression mode : Lossy
    Stream size : 45.3 MiB (6%)
    Title : AniLibria
    Language : Russian
    Default : No
    Forced : No
    Audio #4
    ID : 5
    Format : FLAC
    Format/Info : Free Lossless Audio Codec
    Codec ID : A_FLAC
    Duration : 23 min 34 s
    Bit rate mode : Variable
    Bit rate : 661 kb/s
    Channel(s) : 2 channels
    Channel layout : L R
    Sampling rate : 48.0 kHz
    Frame rate : 11.721 FPS (4095 SPF)
    Bit depth : 16 bits
    Compression mode : Lossless
    Stream size : 111 MiB (15%)
    Title : Original
    Writing library : libFLAC 1.3.1 (UTC 2014-11-25)
    Language : Japanese
    Default : No
    Forced : No
    Text #1
    ID : 6
    Format : ASS
    Codec ID : S_TEXT/ASS
    Codec ID/Info : Advanced Sub Station Alpha
    Duration : 23 min 31 s
    Bit rate : 20 b/s
    Count of elements : 49
    Compression mode : Lossless
    Stream size : 3.51 KiB (0%)
    Title : Forced
    Language : Russian
    Default : Yes
    Forced : No
    Text #2
    ID : 7
    Format : ASS
    Codec ID : S_TEXT/ASS
    Codec ID/Info : Advanced Sub Station Alpha
    Duration : 23 min 31 s
    Bit rate : 196 b/s
    Count of elements : 466
    Compression mode : Lossless
    Stream size : 33.8 KiB (0%)
    Title : Full
    Language : Russian
    Default : No
    Forced : No
    Menu
    00: 00: 00.000 : en: Prologue
    00: 01: 47.024 : en: OP
    00: 03: 16.988 : en: Part A
    00: 12: 43.012 : en: Part B
    00: 21: 36.003 : en: ED
    00: 23: 06.010 : en: Preview



    General
    Unique ID : 255771690880749364744869440917020632348 (0xC06BD5F991CDE6ED027F356B6754651C)
    Complete name : D: 10. Demon Blade Masamune - Torn Dependant Soul, Singing Hearts Rain.mkv
    Format : Matroska
    Format version : Version 4
    File size : 743 MiB
    Duration : 23 min 34 s
    Overall bit rate mode : Variable
    Overall bit rate : 4 407 kb/s
    Encoded date : UTC 2020-02-28 14: 26: 10
    Writing application : mkvmerge v43.0.0 (\'The Quartermaster\') 64-bit
    Writing library : libebml v1.3.10 + libmatroska v1.5.2
    Attachments : DS Goose.ttf
    Video
    ID : 1
    Format : AVC
    Format/Info : Advanced Video Codec
    Format profile : High@L5
    Format settings : CABAC/5 Ref Frames
    Format settings, CABAC : Yes
    Format settings, Reference : 5 frames
    Codec ID : V_MPEG4/ISO/AVC
    Duration : 23 min 34 s
    Bit rate : 3 044 kb/s
    Width : 1 920 pixels
    Height : 1 080 pixels
    Display aspect ratio : 16: 9
    Frame rate mode : Constant
    Frame rate : 23.976 (24000/1001) FPS
    Color space : YUV
    Chroma subsampling : 4: 2: 0
    Bit depth : 8 bits
    Scan type : Progressive
    Bits/(Pixel*Frame) : 0.061
    Stream size : 514 MiB (69%)
    Writing library : x264 core 148 r2638 7599210
    Encoding settings : cabac=1/ref=5/deblock=1: 1: 1/analyse=0x3: 0x113/me=umh/subme=9/psy=1/psy_rd=0.70: 0.00/mixed_ref=1/me_range=32/chroma_me=1/trellis=0/8x8dct=1/cqm=0/deadzone=21, 11/fast_pskip=0/chroma_qp_offset=-2/threads=12/lookahead_threads=1/sliced_threads=0/nr=0/decimate=1/interlaced=0/bluray_compat=0/constrained_intra=0/bframes=3/b_pyramid=2/b_adapt=2/b_bias=0/direct=1/weightb=1/open_gop=0/weightp=2/keyint=240/keyint_min=23/scenecut=40/intra_refresh=0/rc_lookahead=40/rc=crf/mbtree=1/crf=17.0/qcomp=0.60/qpmin=0/qpmax=69/qpstep=4/ip_ratio=1.40/aq=1: 1.00
    Language : Japanese
    Default : Yes
    Forced : No
    Audio #1
    ID : 2
    Format : Opus
    Codec ID : A_OPUS
    Duration : 23 min 34 s
    Bit rate : 125 kb/s
    Channel(s) : 2 channels
    Channel layout : L R
    Sampling rate : 48.0 kHz
    Frame rate : 50.000 FPS (960 SPF)
    Compression mode : Lossy
    Stream size : 21.1 MiB (3%)
    Title : AniDub
    Language : Russian
    Default : Yes
    Forced : No
    Audio #2
    ID : 3
    Format : AAC LC
    Format/Info : Advanced Audio Codec Low Complexity
    Codec ID : A_AAC-2
    Duration : 23 min 34 s
    Bit rate : 192 kb/s
    Channel(s) : 2 channels
    Channel layout : L R
    Sampling rate : 48.0 kHz
    Frame rate : 46.875 FPS (1024 SPF)
    Compression mode : Lossy
    Stream size : 32.7 MiB (4%)
    Title : MiraiDub
    Language : Russian
    Default : No
    Forced : No
    Audio #3
    ID : 4
    Format : AAC LC
    Format/Info : Advanced Audio Codec Low Complexity
    Codec ID : A_AAC-2
    Duration : 23 min 34 s
    Bit rate : 288 kb/s
    Channel(s) : 2 channels
    Channel layout : L R
    Sampling rate : 48.0 kHz
    Frame rate : 46.875 FPS (1024 SPF)
    Compression mode : Lossy
    Stream size : 48.9 MiB (7%)
    Title : AniLibria
    Language : Russian
    Default : No
    Forced : No
    Audio #4
    ID : 5
    Format : FLAC
    Format/Info : Free Lossless Audio Codec
    Codec ID : A_FLAC
    Duration : 23 min 34 s
    Bit rate mode : Variable
    Bit rate : 749 kb/s
    Channel(s) : 2 channels
    Channel layout : L R
    Sampling rate : 48.0 kHz
    Frame rate : 11.720 FPS (4096 SPF)
    Bit depth : 16 bits
    Compression mode : Lossless
    Stream size : 126 MiB (17%)
    Title : Original
    Writing library : libFLAC 1.3.1 (UTC 2014-11-25)
    Language : Japanese
    Default : No
    Forced : No
    Text #1
    ID : 6
    Format : ASS
    Codec ID : S_TEXT/ASS
    Codec ID/Info : Advanced Sub Station Alpha
    Duration : 23 min 28 s
    Bit rate : 26 b/s
    Count of elements : 57
    Compression mode : Lossless
    Stream size : 4.52 KiB (0%)
    Title : Forced
    Language : Russian
    Default : Yes
    Forced : No
    Text #2
    ID : 7
    Format : ASS
    Codec ID : S_TEXT/ASS
    Codec ID/Info : Advanced Sub Station Alpha
    Duration : 23 min 28 s
    Bit rate : 159 b/s
    Count of elements : 387
    Compression mode : Lossless
    Stream size : 27.4 KiB (0%)
    Title : Full
    Language : Russian
    Default : No
    Forced : No
    Menu
    00: 00: 00.000 : en: Prologue
    00: 00: 40.040 : en: OP
    00: 02: 10.005 : en: Part A
    00: 12: 07.018 : en: Part B
    00: 21: 36.003 : en: ED
    00: 23: 06.010 : en: Preview



    General
    Unique ID : 77634652682600690317369018540554105122 (0x3A67E3E6447731360A85CE930B56B122)
    Complete name : D: 11. Tsubaki, the Camillia - What Lies Beyond Sadness.mkv
    Format : Matroska
    Format version : Version 4
    File size : 712 MiB
    Duration : 23 min 35 s
    Overall bit rate mode : Variable
    Overall bit rate : 4 221 kb/s
    Encoded date : UTC 2020-02-28 14: 26: 49
    Writing application : mkvmerge v43.0.0 (\'The Quartermaster\') 64-bit
    Writing library : libebml v1.3.10 + libmatroska v1.5.2
    Attachments : DS Goose.ttf
    Video
    ID : 1
    Format : AVC
    Format/Info : Advanced Video Codec
    Format profile : High@L5
    Format settings : CABAC/5 Ref Frames
    Format settings, CABAC : Yes
    Format settings, Reference : 5 frames
    Codec ID : V_MPEG4/ISO/AVC
    Duration : 23 min 35 s
    Bit rate : 2 929 kb/s
    Width : 1 920 pixels
    Height : 1 080 pixels
    Display aspect ratio : 16: 9
    Frame rate mode : Constant
    Frame rate : 23.976 (24000/1001) FPS
    Color space : YUV
    Chroma subsampling : 4: 2: 0
    Bit depth : 8 bits
    Scan type : Progressive
    Bits/(Pixel*Frame) : 0.059
    Stream size : 494 MiB (69%)
    Writing library : x264 core 148 r2638 7599210
    Encoding settings : cabac=1/ref=5/deblock=1: 1: 1/analyse=0x3: 0x113/me=umh/subme=9/psy=1/psy_rd=0.70: 0.00/mixed_ref=1/me_range=32/chroma_me=1/trellis=0/8x8dct=1/cqm=0/deadzone=21, 11/fast_pskip=0/chroma_qp_offset=-2/threads=12/lookahead_threads=1/sliced_threads=0/nr=0/decimate=1/interlaced=0/bluray_compat=0/constrained_intra=0/bframes=3/b_pyramid=2/b_adapt=2/b_bias=0/direct=1/weightb=1/open_gop=0/weightp=2/keyint=240/keyint_min=23/scenecut=40/intra_refresh=0/rc_lookahead=40/rc=crf/mbtree=1/crf=17.0/qcomp=0.60/qpmin=0/qpmax=69/qpstep=4/ip_ratio=1.40/aq=1: 1.00
    Language : Japanese
    Default : Yes

    Soul Eater | Пожиратель Душ [2008, TV, 51 ep] BDRip 1080p raw+rus торрент скачать бесплатно
    Рейтинг →
     (голосов: 1, оценка 5/5, голосовать можно 1 раз )

    Другие торренты по теме:

  • Soul Eater Not! [2014, TV, 12] HDTV 720p raw
  • Soul Eater Not! [2014, TV, 12] BDrip 1080p Hi10p raw скачать через торрент бесплатно
  • Soul Eater Not! | Пожиратель Душ! Класс НОТ! [2014, TV, 12 ep] BDRip 1080p 10-bit raw+rus
  • Rusty Bryant - Fire Eater (1971) / 2014, Universal / [FLAC|tracks+.cue]<Jazz-Funk, Soul-Jazz, Hummond Organ> скачать через торрент бесплатно


    • Комментарии (0):

      Информация

      Информация

        Посетители, находящиеся в группе Гости, не могут оставлять комментарии в данной новости.

        ↓ Меню




        Популярное