.
Авторизация | Регистрация
bitok.xyz
Торрент скачать бесплатно Мультфильмы торрент скачать Рыцарь Майк / Mike the Knight (2012-2013) SATRip (2 сезон, 50 серий из 52) скачать через торрент бесплатно


    Рыцарь Майк / Mike the Knight (2012-2013) SATRip (2 сезон, 50 серий из 52) скачать через торрент бесплатно

    Дата: 14-08-2015, 04:00 | .torrent скачали: 162

    Рыцарь Майк / Mike the Knight (2012-2013) SATRip (2 сезон, 50 серий из 52) скачать через торрент бесплатноПроизводство: Канада, Великобритания/Nelvana, HiT Entertainment
    Жанр: Детский, Приключения
    Режиссер: Нейл Аффлек
    Персонажи: Рыцарь Майк, Иви, Спарки, Сквирт, Фернандо, Королева Марта

    Описание

    Юный Майк живет в средневековом королевстве. Сын короля и королевы, он твердо решил стать благородным рыцарем, как и его отец. Выбрав своим девизом фразу Время быть рыцарем, а рыцарь может всё!, Майк учится быть сильным, всегда поступать справедливо. Юный рыцарь с бурлящим энтузиазмом принимает любые вызовы, будь то охрана замка, организация праздника или спасение принцессы. Ежедневно он будет выполнять новые миссии и становиться похожим на настоящего рыцаря, конечно, не без помощи своих верных друзей.
    Мультсериал вдохновляет детей делать добрые дела, поощряет быть храбрым, благородным и ответственным, развивает чемпионские наклонности. Вместе с героями мультсериала телезрители перенесутся в волшебный мир Средневековья, богатый сказками и легендами.

    Продолжительность: 50 х ~00: 12: 00
    Качество видео: SATRip
    Перевод: Многоголосый закадровый, профессиональный
    Видео: Xvid, 720x400, ~1700 Kbps
    Аудио: AC3, 2 ch, 192 Kbps, CBR Код:
    General
    Complete name : ...Рыцарь Майк.2012-2013.XviD.SATRip1. Рыцарь Майк и ночной страж.avi
    Format : AVI
    Format/Info : Audio Video Interleave
    File size : 164 MiB
    Duration : 12mn 1s
    Overall bit rate : 1 902 Kbps
    Movie name : 01. The Night Time Lookout
    Director : SATRip by Thunder
    Writing application : VirtualDubMod 1.5.10.3 (build 2550/release)
    Original source form/Name : Cartoon
    Video
    ID : 0
    Format : MPEG-4 Visual
    Format profile : Advanced Simple@L5
    Format settings, BVOP : 1
    Format settings, QPel : No
    Format settings, GMC : No warppoints
    Format settings, Matrix : Default (H.263)
    Codec ID : XVID
    Codec ID/Hint : XviD
    Duration : 12mn 1s
    Bit rate : 1 700 Kbps
    Width : 720 pixels
    Height : 400 pixels
    Display aspect ratio : 16:9
    Frame rate : 25.000 fps
    Color space : YUV
    Chroma subsampling : 4:2:0
    Bit depth : 8 bits
    Scan type : Progressive
    Compression mode : Lossy
    Bits/(Pixel*Frame) : 0.236
    Stream size : 146 MiB (89%)
    Writing library : XviD 1.2.1 (UTC 2008-12-04)
    Audio
    ID : 1
    Format : AC-3
    Format/Info : Audio Coding 3
    Mode extension : CM (complete main)
    Format settings, Endianness : Big
    Codec ID : 2000
    Duration : 12mn 1s
    Bit rate mode : Constant
    Bit rate : 192 Kbps
    Channel(s) : 2 channels
    Channel positions : Front: L R
    Sampling rate : 48.0 KHz
    Bit depth : 16 bits
    Compression mode : Lossy
    Stream size : 16.5 MiB (10%)
    Alignment : Split accross interleaves
    Interleave, duration : 40 ms (1.00 video frame)
    Interleave, preload duration : 500 ms


    Скриншоты для ознакомления




    Онлайн видео Рыцарь Майк


    Рыцарь Майк / Mike the Knight (2012-2013) SATRip (2 сезон, 50 серий из 52) скачать через торрент бесплатно
    Рейтинг →
     (голосов: 1, оценка 4/5, голосовать можно 1 раз )

    Другие торренты по теме:

  • Железный рыцарь / Ironclad (2011) BDRemux [1080p]
  • Арн: Рыцарь-тамплиер / Arn - Tempelriddaren (2007) BDRip [720p]
  • Арн: Рыцарь-тамплиер / Arn - Tempelriddaren (2007) BDRip [720p] ATV
  • Арн: Рыцарь-тамплиер / Arn: Tempelriddaren (2007) BDRip [1080p] ATV скачать через торрент бесплатно
  • Арн: Рыцарь-тамплиер / Arn: Tempelriddaren (2007) BDRip [576p] iPad скачать через торрент бесплатно
  • Майкл Муркок | Рыцарь мечей (Хроники Корума - 1) (2014) [MP3] скачать через торрент бесплатно
  • Рыцарь дня / Knight and Day (2010) BDRip [H.264 / MPEG-4 AVC] [Hi10P] [Extended Cut] скачать через торрент бесплатно
  • Zero no Tsukaima: Futatsuki no Kishi | Familiar of Zero: Knight of the Twin Moons | Подручный Луизы-Нулизы: Рыцарь Двух Лун (TV-2) [2007, TV, 12 эп.] BDrip 720p raw скачать через торрент бесплатно


    • Комментарии (0):

      Информация

      Информация

        Посетители, находящиеся в группе Гости, не могут оставлять комментарии в данной новости.

        ↓ Меню




        ↓ Опрос

        Вы добавили сайт в закладки?
        Да
        Нет


        Популярное

        М.Ю. Демидова | ЕГЭ-2020. Физика. 30 типовых вариантов (2020) [PDF]

        (скачиваний: 119)
        Малышарики (2015-2019) WEB-DL [H.264 / 1080p-LQ] (серии 1-154 из 208) [Обновляемая]

        (скачиваний: 111)
        Футурама / Futurama (1999-2013) DVDRip (7 Сезонов, 140 серии) скачать через торрент бесплатно

        (скачиваний: 58)
        Рик и Морти / Rick and Morty (2015) WEB-DL [H.264 / 1080p] (Сезон 2, серии 1-10 из 10) Сыендук [EN / RU Sub] скачать через торрент бесплатно

        (скачиваний: 45)
        Жила-была царевна (2015-2019) WEB-DLRip [H.264 / 720p-LQ] (сезон 1, серии 1-18 из 26) [Обновляемая]

        (скачиваний: 34)
        Лунтик и его друзья (2013-2017) WEB-DLRip 7,8,9 сезон (390-488 серии)[Обновляемая]

        (скачиваний: 34)
        Металионы / Metalions (2018-2019) WEB-DLRip [H.264 / 720p-LQ] (сезон 1, серии 1-52 из 52) [Обновляемая]

        (скачиваний: 32)
        Роботы-пожарные / Fire Robo (2016) WEB-DLRip [H.264 / 720p-LQ] (сезон 1, серии 1-26 из 26) [Обновляемая]

        (скачиваний: 27)
        Снежная Королева: Хранители Чудес (2019) WEB-DLRip [H.264 / 720p-LQ] (сезон 1, серия 1-4 из 26) [Обновляемая]

        (скачиваний: 25)
        Рик и Морти / Rick and Morty (2013-2015) BDRip [H.264] (сезон 1-2, серии 1-21 из 21) Сыендук

        (скачиваний: 25)