.
Авторизация | Регистрация
bitok.xyz
» » Снежная королева 2: Перезаморозка (2014) BDRip 3D [H.264 / 1080p] [Вертикальная анаморфная стереопара] [hand made 16:9] торрент скачать бесплатно


    Снежная королева 2: Перезаморозка (2014) BDRip 3D [H.264 / 1080p] [Вертикальная анаморфная стереопара] [hand made 16:9] торрент скачать бесплатно

    Дата: 15-03-2016, 04:00 | .torrent скачали: 76

    Снежная королева 2: Перезаморозка (2014) BDRip 3D [H.264 / 1080p] [Вертикальная анаморфная стереопара] [hand made 16:9]Производство: Россия/Базелевс Продакшн, Wizart Animation
    Жанр: Мультфильм, Фэнтези, Приключения, Семейный
    Режиссер: Алексей Цицилин

    Актеры
    Иван Охлобыстин, Нюша Шурочкина, Анна Хилькевич, Александр Уман, Игорь Бортник, Алексей Лихницкий, Роман Юнусов, Александр Гудков, Михаил Тихонов

    Описание

    Тщеславный тролль Орм давно мечтает о лаврах героя, и наконец получает этот шанс: северный ветер грозит миру вечной зимой и похищает Марибель. Рука принцессы и королевство троллей достанутся тому, кто вызволит ее из снежного плена. Однажды Орм победил зиму с помощью друзей, теперь он хочет действовать в одиночку. На нем доспехи из сковородок, за ним — отряд трусливых троллей, а впереди — опасный путь к замку Снежной королевы. Но, к счастью, друзья не помнят обид: храбрая Герда, застенчивый Кай, удалая Альфида и весёлая Лута не бросят Орма в беде. А значит их ждут невероятные приключения!

    Дата премьеры в России: 1 января 2015, Двадцатый Век Фокс СНГ, Bazelevs Distribution
    Дата мировой премьеры: 12 декабря 2014
    Дата выхода DVD: 17 февраля 2015, CD Land, Lizard Cinema Trade
    Продолжительность: 01: 18: 49
    Качество видео: BDRip
    Вид субтитров: Отсутствуют
    Видео: AVC/H.264, 1620x1080, ~14, 3 Мбит/сек
    Аудио 1: AC3 5.1 384 Кбит/сек - Русский (iTunes)
    Аудио 2: AC3 5.1 640 Кбит/сек - Английский Код:
    Общее
    Уникальный идентификатор : 206973633851393389141750736670871366988 (0x9BB5AC0282A1A5EE921905026759AD4C)
    Полное имя : J:tempTHE_SNOW_QUEEN_2_3D.mkv
    Формат : Matroska
    Версия формата : Version 2
    Размер файла : 8, 63 Гбайт
    Продолжительность : 1 ч. 18 м.
    Общий поток : 15, 7 Мбит/сек
    Название фильма : THE_SNOW_QUEEN_2_3D_Crop_HalfO/U
    Дата кодирования : UTC 2016-03-14 14:17:41
    Программа кодирования : mkvmerge v5.6.0 (\'Kenya Kane\') built on Jun 29 2012 15:01:44
    Библиотека кодирования : libebml v1.2.3 + libmatroska v1.3.0
    Видео
    Идентификатор : 1
    Формат : AVC
    Формат/Информация : Advanced Video Codec
    Профиль формата :High@L4.1
    Параметр CABAC формата : Да
    Параметр ReFrames формата : 4 кадра
    Идентификатор кодека : V_MPEG4/ISO/AVC
    Продолжительность : 1 ч. 18 м.
    Битрейт : 14, 3 Мбит/сек
    Ширина : 1920 пикселей
    Высота : 1080 пикселей
    Соотношение сторон : 16:9
    Режим частоты кадров : Постоянный
    Частота кадров : 23, 976 кадра/сек
    Цветовое пространство : YUV
    Субдискретизация насыщенности : 4:2:0
    Битовая глубина : 8 бит
    Тип развёртки : Прогрессивная
    Бит/(Пиксели*Кадры) : 0.289
    Размер потока : 7, 90 Гбайт (91%)
    Заголовок : rip by I/N
    Библиотека кодирования : x264 core 128 r2216M 198a7ea
    Настройки программы : cabac=1/ref=4/deblock=1:-3:-3/analyse=0x3:0x133/me=umh/subme=10/psy=1/psy_rd=1.00:0.15/mixed_ref=1/me_range=64/chroma_me=1/trellis=2/8x8dct=1/cqm=0/deadzone=21, 11/fast_pskip=1/chroma_qp_offset=-3/threads=8/lookahead_threads=1/sliced_threads=0/nr=0/decimate=1/interlaced=0/bluray_compat=0/constrained_intra=0/bframes=12/b_pyramid=2/b_adapt=2/b_bias=0/direct=3/weightb=1/open_gop=0/weightp=2/keyint=230/keyint_min=23/scenecut=40/intra_refresh=0/rc_lookahead=60/rc=crf/mbtree=1/crf=15.0/qcomp=0.60/qpmin=10/qpmax=69/qpstep=4/ip_ratio=1.40/aq=1:0.90
    Default : Да
    Forced : Нет
    Аудио #1
    Идентификатор : 2
    Формат : AC-3
    Формат/Информация : Audio Coding 3
    Расширение режима : CM (complete main)
    Параметр Endianness формата : Big
    Идентификатор кодека : A_AC3
    Продолжительность : 1 ч. О таком странном сюжете не догадывалась даже Настя Каменских. 18 м.
    Вид битрейта : Постоянный
    Битрейт : 384 Кбит/сек
    Каналы : 6 каналов
    Расположение каналов : Front: L C R, Side: L R, LFE
    Частота : 48, 0 КГц
    Битовая глубина : 16 бит
    Метод сжатия : С потерями
    Размер потока : 217 Мбайт (2%)
    Заголовок : Дубляж - iTunes
    Язык : Russian
    Default : Да
    Forced : Нет
    Аудио #2
    Идентификатор : 3
    Формат : AC-3
    Формат/Информация : Audio Coding 3
    Расширение режима : CM (complete main)
    Параметр Endianness формата : Big
    Идентификатор кодека : A_AC3
    Продолжительность : 1 ч. 18 м.
    Вид битрейта : Постоянный
    Битрейт : 640 Кбит/сек
    Каналы : 6 каналов
    Расположение каналов : Front: L C R, Side: L R, LFE
    Частота : 48, 0 КГц
    Битовая глубина : 16 бит
    Метод сжатия : С потерями
    Размер потока : 361 Мбайт (4%)
    Язык : English
    Default : Нет
    Forced : Нет
    Меню
    00:00:00.000 : en:00:00:00.000
    00:07:45.965 : en:00:07:45.965
    00:13:23.845 : en:00:13:23.845
    00:21:25.618 : en:00:21:25.618
    00:25:56.513 : en:00:25:56.513
    00:33:07.569 : en:00:33:07.569
    00:39:09.639 : en:00:39:09.639
    00:45:38.194 : en:00:45:38.194
    00:52:05.039 : en:00:52:05.039
    00:59:08.545 : en:00:59:08.545
    01:05:25.588 : en:01:05:25.588
    01:11:38.085 : en:01:11:38.085


    Скриншоты для ознакомления




    Онлайн видео Снежная королева 2: Перезаморозка (2014) BDRip 3D [H.264



    Снежная королева 2: Перезаморозка (2014) BDRip 3D [H.264/1080p] [Вертикальная анаморфная стереопара] [hand made 16:9]
    Рейтинг →
     (голосов: 1, оценка 3/5, голосовать можно 1 раз )

    Другие торренты по теме:

  • Снежная королева 2: Перезаморозка (2014) WEBRip скачать через торрент бесплатно
  • Снежная королева 2: Перезаморозка (2014) WEBRip [H.264 / 720p-LQ] скачать через торрент бесплатно
  • Снежная королева 2: Перезаморозка (2014) WEBRip [H.264] скачать через торрент бесплатно
  • Снежная королева 2: Перезаморозка (2014) WEB-DLRip
  • Снежная королева 2: Перезаморозка (2014) WEB-DL [720p]
  • Снежная королева 2: Перезаморозка (2014) WEB-DL [H.264 / 1080p-LQ]
  • Виктор Запаренко | Поиграем в сказку. Щелкунчик. Снежная королева. Книга-игра. 6-8 лет (2002) [PDF] скачать через торрент бесплатно
  • Снежная королева 2: Перезаморозка (2014) BDRip 3D [H.264 / 1080p] [Вертикальная анаморфная стереопара]


    • Комментарии (0):

      Информация

      Информация

        Посетители, находящиеся в группе Гости, не могут оставлять комментарии в данной новости.

        ↓ Меню




        ↓ Опрос

        Вы добавили сайт в закладки?
        Да
        Нет


        Популярное

        Рик и Морти / Rick and Morty (2015) WEB-DL [H.264 / 1080p] (Сезон 2, серии 1-10 из 10) Сыендук [EN / RU Sub] скачать через торрент бесплатно

        (скачиваний: 221)
        Жила-была царевна (2015-2019) WEB-DLRip [H.264 / 720p-LQ] (сезон 1, серии 1-18 из 26) [Обновляемая]

        (скачиваний: 163)
        Снежная Королева: Хранители Чудес (2019) WEB-DLRip [H.264 / 720p-LQ] (сезон 1, серия 1-4 из 26) [Обновляемая]

        (скачиваний: 151)
        Рик и Морти / Rick and Morty (2013) BDRip [H.264 / 720p-LQ] (сезон 1, серии 1-11 из 11) Сыендук

        (скачиваний: 150)
        Футурама / Futurama (1999-2013) DVDRip (7 Сезонов, 140 серии) скачать через торрент бесплатно

        (скачиваний: 134)
        Малышарики (2015-2019) WEB-DL [H.264 / 1080p-LQ] (серии 1-154 из 208) [Обновляемая]

        (скачиваний: 126)
        Рик и Морти / Rick and Morty (2013) BDRip [H.264 / 1080p] (Сезон 1, серии 1-11 из 11) Сыендук [EN Sub] скачать через торрент бесплатно

        (скачиваний: 125)
        Рик и Морти / Rick and Morty (2013-2015) BDRip [H.264] (сезон 1-2, серии 1-21 из 21) Сыендук

        (скачиваний: 123)
        Король Лев / The Lion King (2019) BDRip 3D [H.264 / 1080p] [Вертикальная анаморфная стереопара]

        (скачиваний: 86)
        Металионы / Metalions (2018-2019) WEB-DLRip [H.264 / 720p-LQ] (сезон 1, серии 1-52 из 52) [Обновляемая]

        (скачиваний: 77)