.
Авторизация | Регистрация

bitok.xyz

» » VA - ZEN CD - A Ninja Tune Retrospective (2004) Ninja Tune [FLAC|Lossless|tracks+.cue] <Leftfield, Trip Hop, Downtempo> торрент скачать бесплатно


    VA - ZEN CD - A Ninja Tune Retrospective (2004) Ninja Tune [FLAC|Lossless|tracks+.cue] <Leftfield, Trip Hop, Downtempo> торрент скачать бесплатно

    Дата: 13-08-2016, 04:04 | .torrent скачали: 14

    VA - ZEN CD - A Ninja Tune Retrospective (2004) Ninja Tune [FLAC|Lossless|tracks+.cue] &ltLeftfield, Trip Hop, Downtempo>
    Год: 2004 •Страна : UK •Жанр: Leftfield, Trip Hop, Downtempo •Издание: Ninja Tune – ZEN CD85
    Кодек: FLAC •Битрейт: Lossless •Тип рипа: tracks+.cue •Тип релиза : CD, Compilation •Продолжительность: 02: 38: 21

    Треклист
    Продолжительность : 01: 19: 30
    Треклист :
    01. DJ Food - Dark Lady (04: 06)
    02. Coldcut - Atomic Moog 2000 (03: 45)
    03. Amon Tobin - Get Your Snack On (04: 21)
    04. Bonobo - Pick Up (04: 08)
    05. Mr. Scruff - Get A Move On (03: 26)
    06. Mr. Scruff - Sweetsmoke (04: 06)
    07. Wagon Christ - Bend Over (04: 45)
    08. Kid Koala - Skanky Panky (03: 25)
    09. Luke Vibert - Get Your Head Down (07: 42)
    10. Amon Tobin - Sordid (07: 11)
    11. DJ Food - Spiral (05: 54)
    12. Hexstatic feat. Alien Toy , Cosmos Jimmy Saville - Auto (04: 41)
    13. Coldcut Hexstatic - Timber (04: 32)
    14. Amon Tobin - Easy Muffin (05: 02)
    15. Coldcut - Autumn Leaves (04: 02)
    16. The Cinematic Orchestra featuring Fontella Bass - All That You Give (04: 22)
    17. Funki Porcini - It\'s A Long Road (Edit) (04: 02)

    Exact Audio Copy V1.1 from 23. June 2015
    EAC extraction logfile from 8. August 2016, 11: 43
    -/Zen CD: A Ninja Tune Retrospective
    Used drive : MATSHITADVD+-RW UJ8C2 Adapter: 1 ID: 0
    Read mode : Secure
    Utilize accurate stream : Yes
    Defeat audio cache : Yes
    Make use of C2 pointers : No
    Read offset correction : 103
    Overread into Lead-In and Lead-Out : No
    Fill up missing offset samples with silence : Yes
    Delete leading and trailing silent blocks : No
    Null samples used in CRC calculations : Yes
    Used interface : Native Win32 interface for Win NT 2000
    Gap handling : Appended to previous track
    Used output format : User Defined Encoder
    Selected bitrate : 1024 kBit/s
    Quality : High
    Add ID3 tag : No
    Command line compressor : C: Program Files (x86)FLAC Frontendtoolsflac.exe
    Additional command line options : -8 -V -T ARTIST=%artist% -T TITLE=%title% -T ALBUM=%albumtitle% -T DATE=%year% -T TRACKNUMBER=%tracknr% %source% -o %dest%
    TOC of the extracted CD
    Track | Start | Length | Start sector | End sector
    ---------------------------------------------------------
    1 | 0: 00.00 | 4: 05.71 | 0 | 18445
    2 | 4: 05.71 | 3: 45.00 | 18446 | 35320
    3 | 7: 50.71 | 4: 21.04 | 35321 | 54899
    4 | 12: 12.00 | 4: 07.50 | 54900 | 73474
    5 | 16: 19.50 | 3: 25.50 | 73475 | 88899
    6 | 19: 45.25 | 4: 05.38 | 88900 | 107312
    7 | 23: 50.63 | 4: 45.19 | 107313 | 128706
    8 | 28: 36.07 | 3: 24.59 | 128707 | 144065
    9 | 32: 00.66 | 7: 42.18 | 144066 | 178733
    10 | 39: 43.09 | 7: 10.44 | 178734 | 211027
    11 | 46: 53.53 | 5: 54.28 | 211028 | 237605
    12 | 52: 48.06 | 4: 41.10 | 237606 | 258690
    13 | 57: 29.16 | 4: 32.05 | 258691 | 279095
    14 | 62: 01.21 | 5: 01.48 | 279096 | 301718
    15 | 67: 02.69 | 4: 01.51 | 301719 | 319844
    16 | 71: 04.45 | 4: 22.12 | 319845 | 339506
    17 | 75: 26.57 | 4: 01.57 | 339507 | 357638
    Track 1
    Filename D: ZEN CD - A Ninja Tune Retrospective - 2004 (2CD FLAC)CD11 - DJ Food - Dark Lady.wav
    Pre-gap length 0: 00: 02.00
    Peak level 98.8 %
    Extraction speed 2.5 X
    Track quality 100.0 %
    Test CRC 7635CE73
    Copy CRC 7635CE73
    Accurately ripped (confidence 11) F5FDF695 (AR v2)
    Copy OK
    Track 2
    Filename D: ZEN CD - A Ninja Tune Retrospective - 2004 (2CD FLAC)CD12 - Coldcut - Atomic Moog.wav
    Peak level 93.3 %
    Extraction speed 2.7 X
    Track quality 100.0 %
    Test CRC 22E1BDDA
    Copy CRC 22E1BDDA
    Accurately ripped (confidence 10) 58904C5F (AR v2)
    Copy OK
    Track 3
    Filename D: ZEN CD - A Ninja Tune Retrospective - 2004 (2CD FLAC)CD13 - Amon Tobin - Get Your Snack On.wav
    Peak level 98.8 %
    Extraction speed 3.0 X
    Track quality 100.0 %
    Test CRC 3947E1E9
    Copy CRC 3947E1E9
    Accurately ripped (confidence 11) A7D1ACCA (AR v2)
    Copy OK
    Track 4
    Filename D: ZEN CD - A Ninja Tune Retrospective - 2004 (2CD FLAC)CD14 - Bonobo - Pick Up.wav
    Peak level 98.8 %
    Extraction speed 2.4 X
    Track quality 99.9 %
    Test CRC D56E167A
    Copy CRC D56E167A
    Accurately ripped (confidence 11) C7A323EE (AR v2)
    Copy OK
    Track 5
    Filename D: ZEN CD - A Ninja Tune Retrospective - 2004 (2CD FLAC)CD15 - Mr Scruff - Get A Move On.wav
    Peak level 98.8 %
    Extraction speed 3.2 X
    Track quality 100.0 %
    Test CRC BDFA1CCF
    Copy CRC BDFA1CCF
    Accurately ripped (confidence 11) EA4499B0 (AR v2)
    Copy OK
    Track 6
    Filename D: ZEN CD - A Ninja Tune Retrospective - 2004 (2CD FLAC)CD16 - Mr Scruff - Sweetsmoke.wav
    Peak level 98.8 %
    Extraction speed 3.5 X
    Track quality 100.0 %
    Test CRC A487F615
    Copy CRC A487F615
    Accurately ripped (confidence 11) 8EDB70A1 (AR v2)
    Copy OK
    Track 7
    Filename D: ZEN CD - A Ninja Tune Retrospective - 2004 (2CD FLAC)CD17 - Wagon Christ - Bend Over.wav
    Peak level 99.7 %
    Extraction speed 3.8 X
    Track quality 100.0 %
    Test CRC 7A926E7F
    Copy CRC 7A926E7F
    Accurately ripped (confidence 11) C5371B10 (AR v2)
    Copy OK
    Track 8
    Filename D: ZEN CD - A Ninja Tune Retrospective - 2004 (2CD FLAC)CD18 - Kid Koala - Skanky Panky.wav
    Peak level 99.9 %
    Extraction speed 3.7 X
    Track quality 100.0 %
    Test CRC 25BF032B
    Copy CRC 25BF032B
    Accurately ripped (confidence 11) B618CE54 (AR v2)
    Copy OK
    Track 9
    Filename D: ZEN CD - A Ninja Tune Retrospective - 2004 (2CD FLAC)CD19 - Luke Vibert - Get Your Head Down.wav
    Peak level 98.8 %
    Extraction speed 4.3 X
    Track quality 100.0 %
    Test CRC 60131939
    Copy CRC 60131939
    Accurately ripped (confidence 11) 489D775A (AR v2)
    Copy OK
    Track 10
    Filename D: ZEN CD - A Ninja Tune Retrospective - 2004 (2CD FLAC)CD110 - Amon Tobin - Sordid.wav
    Peak level 92.5 %
    Extraction speed 3.8 X
    Track quality 99.9 %
    Test CRC 642C6E11
    Copy CRC 642C6E11
    Accurately ripped (confidence 11) B3115B65 (AR v2)
    Copy OK
    Track 11
    Filename D: ZEN CD - A Ninja Tune Retrospective - 2004 (2CD FLAC)CD111 - DJ Food - Spiral.wav
    Peak level 98.8 %
    Extraction speed 4.6 X
    Track quality 100.0 %
    Test CRC 30B085ED
    Copy CRC 30B085ED
    Accurately ripped (confidence 11) 1453A7E8 (AR v2)
    Copy OK
    Track 12
    Filename D: ZEN CD - A Ninja Tune Retrospective - 2004 (2CD FLAC)CD112 - Hexstatic - Auto.wav
    Peak level 85.9 %
    Extraction speed 4.7 X
    Track quality 100.0 %
    Test CRC 122573A8
    Copy CRC 122573A8
    Accurately ripped (confidence 11) 16F80107 (AR v2)
    Copy OK
    Track 13
    Filename D: ZEN CD - A Ninja Tune Retrospective - 2004 (2CD FLAC)CD113 - Coldcut - Timber.wav
    Peak level 100.0 %
    Extraction speed 4.8 X
    Track quality 100.0 %
    Test CRC AA479AD9
    Copy CRC AA479AD9
    Accurately ripped (confidence 11) 28F101B3 (AR v2)
    Copy OK
    Track 14
    Filename D: ZEN CD - A Ninja Tune Retrospective - 2004 (2CD FLAC)CD114 - Amon Tobin - Easy Muffin.wav
    Peak level 98.8 %
    Extraction speed 5.0 X
    Track quality 100.0 %
    Test CRC 6389AC16
    Copy CRC 6389AC16
    Accurately ripped (confidence 11) 752C94CF (AR v2)
    Copy OK
    Track 15
    Filename D: ZEN CD - A Ninja Tune Retrospective - 2004 (2CD FLAC)CD115 - Coldcut - Autumn Leaves.wav
    Peak level 98.8 %
    Extraction speed 3.6 X
    Track quality 99.9 %
    Test CRC 1EE9842F
    Copy CRC 1EE9842F
    Accurately ripped (confidence 11) 4117D6FA (AR v2)
    Copy OK
    Track 16
    Filename D: ZEN CD - A Ninja Tune Retrospective - 2004 (2CD FLAC)CD116 - Cinematic Orchestra - All That You Give.wav
    Peak level 99.8 %
    Extraction speed 5.1 X
    Track quality 100.0 %
    Test CRC 9236CBE1
    Copy CRC 9236CBE1
    Accurately ripped (confidence 11) 7D9A3047 (AR v2)
    Copy OK
    Track 17
    Filename D: ZEN CD - A Ninja Tune Retrospective - 2004 (2CD FLAC)CD117 - Funki Porcini - Long Road.wav
    Peak level 98.8 %
    Extraction speed 5.2 X
    Track quality 100.0 %
    Test CRC 9691DBFA
    Copy CRC 9691DBFA
    Accurately ripped (confidence 11) 8E988DDB (AR v2)
    Copy OK
    All tracks accurately ripped
    No errors occurred
    End of status report
    ---- CUETools DB Plugin V2.1.6
    CTDB TOCID: rth_lKPMr_.tvc7wMUXJfg89KP0- found
    Submit result: rth_lKPMr_.tvc7wMUXJfg89KP0- has been confirmed
    Track | CTDB Status
    1 | (18/18) Accurately ripped
    2 | (17/18) Accurately ripped
    3 | (18/18) Accurately ripped
    4 | (18/18) Accurately ripped
    5 | (18/18) Accurately ripped
    6 | (18/18) Accurately ripped
    7 | (18/18) Accurately ripped
    8 | (18/18) Accurately ripped
    9 | (17/18) Accurately ripped
    10 | (18/18) Accurately ripped
    11 | (18/18) Accurately ripped
    12 | (17/18) Accurately ripped
    13 | (17/18) Accurately ripped
    14 | (17/18) Accurately ripped
    15 | (17/18) Accurately ripped
    16 | (17/18) Accurately ripped
    17 | (16/18) Accurately ripped
    ==== Log checksum C2F6E74586C672B1E1A3C23ECE11EB8DD7F1AE7652EB5BBEA79B8B1E9315891D ====

    REM GENRE Electronic
    REM DATE 2004
    REM DISCID EE12A011
    REM COMMENT ExactAudioCopy v1.1
    PERFORMER Various Artists
    TITLE Zen CD: A Ninja Tune Retrospective
    FILE 01 - DJ Food - Dark Lady.wav WAVE
    TRACK 01 AUDIO
    PERFORMER DJ Food
    TITLE Dark Lady
    INDEX 01 00: 00: 00
    FILE 02 - Coldcut - Atomic Moog.wav WAVE
    TRACK 02 AUDIO
    PERFORMER Coldcut
    TITLE Atomic Moog
    INDEX 01 00: 00: 00
    FILE 03 - Amon Tobin - Get Your Snack On.wav WAVE
    TRACK 03 AUDIO
    PERFORMER Amon Tobin
    TITLE Get Your Snack On
    INDEX 01 00: 00: 00
    FILE 04 - Bonobo - Pick Up.wav WAVE
    TRACK 04 AUDIO
    PERFORMER Bonobo
    TITLE Pick Up
    INDEX 01 00: 00: 00
    FILE 05 - Mr Scruff - Get A Move On.wav WAVE
    TRACK 05 AUDIO
    PERFORMER Mr Scruff
    TITLE Get A Move On
    INDEX 01 00: 00: 00
    FILE 06 - Mr Scruff - Sweetsmoke.wav WAVE
    TRACK 06 AUDIO
    PERFORMER Mr Scruff
    TITLE Sweetsmoke
    INDEX 01 00: 00: 00
    FILE 07 - Wagon Christ - Bend Over.wav WAVE
    TRACK 07 AUDIO
    PERFORMER Wagon Christ
    TITLE Bend Over
    INDEX 01 00: 00: 00
    FILE 08 - Kid Koala - Skanky Panky.wav WAVE
    TRACK 08 AUDIO
    PERFORMER Kid Koala
    TITLE Skanky Panky
    INDEX 01 00: 00: 00
    FILE 09 - Luke Vibert - Get Your Head Down.wav WAVE
    TRACK 09 AUDIO
    PERFORMER Luke Vibert
    TITLE Get Your Head Down
    INDEX 01 00: 00: 00
    FILE 10 - Amon Tobin - Sordid.wav WAVE
    TRACK 10 AUDIO
    PERFORMER Amon Tobin
    TITLE Sordid
    INDEX 01 00: 00: 00
    FILE 11 - DJ Food - Spiral.wav WAVE
    TRACK 11 AUDIO
    PERFORMER DJ Food
    TITLE Spiral
    INDEX 01 00: 00: 00
    FILE 12 - Hexstatic - Auto.wav WAVE
    TRACK 12 AUDIO
    PERFORMER Hexstatic
    TITLE Auto
    INDEX 01 00: 00: 00
    FILE 13 - Coldcut - Timber.wav WAVE
    TRACK 13 AUDIO
    PERFORMER Coldcut
    TITLE Timber
    INDEX 01 00: 00: 00
    FILE 14 - Amon Tobin - Easy Muffin.wav WAVE
    TRACK 14 AUDIO
    PERFORMER Amon Tobin
    TITLE Easy Muffin
    INDEX 01 00: 00: 00
    FILE 15 - Coldcut - Autumn Leaves.wav WAVE
    TRACK 15 AUDIO
    PERFORMER Coldcut
    TITLE Autumn Leaves
    INDEX 01 00: 00: 00
    FILE 16 - Cinematic Orchestra - All That You Give.wav WAVE
    TRACK 16 AUDIO
    PERFORMER Cinematic Orchestra
    TITLE All That You Give
    INDEX 01 00: 00: 00
    FILE 17 - Funki Porcini - Long Road.wav WAVE
    TRACK 17 AUDIO
    PERFORMER Funki Porcini
    TITLE Long Road
    INDEX 01 00: 00: 00
    Продолжительность : 01: 18: 51
    Треклист :
    01. Coldcut - More Beats Pieces (04: 04)
    02. DJ Vadim feat. Motion Man - The Terrorist (04: 14)
    03. Kid Koala - Fender Bender (03: 55)
    04. DJ Vadim feat. Sarah Jones - Your Revolution (03: 36)
    05. The Herbaliser - Mr Chombee Has The Flaw (04: 17)
    06. Mr. Scruff - Shrimp (04: 19)
    07. The Herbaliser feat. What What - The Blend (03: 41)
    08. 9 Lazy 9 - Black Jesus (04: 05)
    09. Up, Bustle Out - Aqui No Ma (04: 49)
    10. The Cinematic Orchestra - Channel 1 Suite (05: 46)
    11. Amon Tobin - Deo (06: 43)
    12. The Cinematic Orchestra feat. Roots Manuva - All Things To All Men (10: 41)
    13. Jaga Jazzist - Lithuania (08: 38)
    14. Funki Porcini - Purrfect (Edit) (04: 51)
    15. The Herbaliser feat. Seaming To - Something Wicked (05: 12)

    Exact Audio Copy V1.1 from 23. June 2015
    EAC extraction logfile from 8. August 2016, 12: 57
    -/Zen CD: A Ninja Tune Retrospective
    Used drive : MATSHITADVD+-RW UJ8C2 Adapter: 1 ID: 0
    Read mode : Secure
    Utilize accurate stream : Yes
    Defeat audio cache : Yes
    Make use of C2 pointers : No
    Read offset correction : 103
    Overread into Lead-In and Lead-Out : No
    Fill up missing offset samples with silence : Yes
    Delete leading and trailing silent blocks : No
    Null samples used in CRC calculations : Yes
    Used interface : Native Win32 interface for Win NT 2000
    Gap handling : Appended to previous track
    Used output format : User Defined Encoder
    Selected bitrate : 1024 kBit/s
    Quality : High
    Add ID3 tag : No
    Command line compressor : C: Program Files (x86)FLAC Frontendtoolsflac.exe
    Additional command line options : -8 -V -T ARTIST=%artist% -T TITLE=%title% -T ALBUM=%albumtitle% -T DATE=%year% -T TRACKNUMBER=%tracknr% %source% -o %dest%
    TOC of the extracted CD
    Track | Start | Length | Start sector | End sector
    ---------------------------------------------------------
    1 | 0: 00.00 | 4: 04.13 | 0 | 18312
    2 | 4: 04.13 | 4: 13.53 | 18313 | 37340
    3 | 8: 17.66 | 3: 54.64 | 37341 | 54954
    4 | 12: 12.55 | 3: 35.42 | 54955 | 71121
    5 | 15: 48.22 | 4: 17.24 | 71122 | 90420
    6 | 20: 05.46 | 4: 19.33 | 90421 | 109878
    7 | 24: 25.04 | 3: 41.37 | 109879 | 126490
    8 | 28: 06.41 | 4: 05.37 | 126491 | 144902
    9 | 32: 12.03 | 4: 48.61 | 144903 | 166563
    10 | 37: 00.64 | 5: 45.48 | 166564 | 192486
    11 | 42: 46.37 | 6: 42.65 | 192487 | 222701
    12 | 49: 29.27 | 10: 41.36 | 222702 | 270812
    13 | 60: 10.63 | 8: 38.09 | 270813 | 309671
    14 | 68: 48.72 | 4: 50.63 | 309672 | 331484
    15 | 73: 39.60 | 5: 11.54 | 331485 | 354863
    Track 1
    Filename D: ZEN CD - A Ninja Tune Retrospective - 2004 (2CD FLAC)CD21 - Coldcut - More Beats Pieces.wav
    Pre-gap length 0: 00: 02.00
    Peak level 98.8 %
    Extraction speed 2.5 X
    Track quality 100.0 %
    Test CRC 2CB34C6A
    Copy CRC 2CB34C6A
    Accurately ripped (confidence 16) A7156D29 (AR v2)
    Copy OK
    Track 2
    Filename D: ZEN CD - A Ninja Tune Retrospective - 2004 (2CD FLAC)CD22 - DJ Vadim - Terrorist.wav
    Peak level 98.8 %
    Extraction speed 2.8 X
    Track quality 100.0 %
    Test CRC 76DC1A5D
    Copy CRC 76DC1A5D
    Accurately ripped (confidence 16) 6D6A52F4 (AR v2)
    Copy OK
    Track 3
    Filename D: ZEN CD - A Ninja Tune Retrospective - 2004 (2CD FLAC)CD23 - Kid Koala - Fender Bender.wav
    Peak level 98.8 %
    Extraction speed 2.9 X
    Track quality 100.0 %
    Test CRC EC365E98
    Copy CRC EC365E98
    Accurately ripped (confidence 16) C2B541EE (AR v2)
    Copy OK
    Track 4
    Filename D: ZEN CD - A Ninja Tune Retrospective - 2004 (2CD FLAC)CD24 - DJ Vadim - Your Revolution.wav
    Peak level 98.8 %
    Extraction speed 3.1 X
    Track quality 100.0 %
    Test CRC 2DD6B0B1
    Copy CRC 2DD6B0B1
    Accurately ripped (confidence 16) AF42AEF9 (AR v2)
    Copy OK
    Track 5
    Filename D: ZEN CD - A Ninja Tune Retrospective - 2004 (2CD FLAC)CD25 - The Herbaliser - Mr Chombee Has The Flaw.wav
    Peak level 83.1 %
    Extraction speed 2.5 X
    Track quality 99.9 %
    Test CRC 21942CB7
    Copy CRC 21942CB7
    Accurately ripped (confidence 16) 73179E01 (AR v2)
    Copy OK
    Track 6
    Filename D: ZEN CD - A Ninja Tune Retrospective - 2004 (2CD FLAC)CD26 - Mr Scruff - Shrimp.wav
    Peak level 98.8 %
    Extraction speed 3.5 X
    Track quality 100.0 %
    Test CRC 4571A7E3
    Copy CRC 4571A7E3
    Accurately ripped (confidence 16) B69B1009 (AR v2)
    Copy OK
    Track 7
    Filename D: ZEN CD - A Ninja Tune Retrospective - 2004 (2CD FLAC)CD27 - The Herbaliser - The Blend.wav
    Peak level 98.8 %
    Extraction speed 3.6 X
    Track quality 100.0 %
    Test CRC 32DA6427
    Copy CRC 32DA6427
    Accurately ripped (confidence 16) 25F4C8B7 (AR v2)
    Copy OK
    Track 8
    Filename D: ZEN CD - A Ninja Tune Retrospective - 2004 (2CD FLAC)CD28 - 9 Lazy 9 - Black Jesus.wav
    Peak level 98.8 %
    Extraction speed 3.8 X
    Track quality 100.0 %
    Test CRC 03D316C5
    Copy CRC 03D316C5
    Accurately ripped (confidence 16) 60239058 (AR v2)
    Copy OK
    Track 9
    Filename D: ZEN CD - A Ninja Tune Retrospective - 2004 (2CD FLAC)CD29 - Up, Bustle Out - Aqui No Ma.wav
    Peak level 98.8 %
    Extraction speed 3.1 X
    Track quality 99.9 %
    Test CRC A9204333
    Copy CRC A9204333
    Accurately ripped (confidence 16) 29DFAD75 (AR v2)
    Copy OK
    Track 10
    Filename D: ZEN CD - A Ninja Tune Retrospective - 2004 (2CD FLAC)CD210 - Cinematic Orchestra - Channel 1 Suite.wav
    Peak level 98.8 %
    Extraction speed 3.4 X
    Track quality 99.9 %
    Test CRC C99ACFB4
    Copy CRC C99ACFB4
    Accurately ripped (confidence 16) FFC3CBC5 (AR v2)
    Copy OK
    Track 11
    Filename D: ZEN CD - A Ninja Tune Retrospective - 2004 (2CD FLAC)CD211 - Amon Tobin - Deo.wav
    Peak level 99.5 %
    Extraction speed 4.6 X
    Track quality 100.0 %
    Test CRC 9D5CE58E
    Copy CRC 9D5CE58E
    Accurately ripped (confidence 16) 5189857E (AR v2)
    Copy OK
    Track 12
    Filename D: ZEN CD - A Ninja Tune Retrospective - 2004 (2CD FLAC)CD212 - Cinematic Orchestra - All Things To All Men.wav
    Peak level 99.8 %
    Extraction speed 4.9 X
    Track quality 100.0 %
    Test CRC 38970B73
    Copy CRC 38970B73
    Accurately ripped (confidence 16) 219BAFFE (AR v2)
    Copy OK
    Track 13
    Filename D: ZEN CD - A Ninja Tune Retrospective - 2004 (2CD FLAC)CD213 - Jaga Jazzist - Lithuania.wav
    Peak level 99.9 %
    Extraction speed 5.3 X
    Track quality 100.0 %
    Test CRC 883012C8
    Copy CRC 883012C8
    Accurately ripped (confidence 16) 9F84CE0E (AR v2)
    Copy OK
    Track 14
    Filename D: ZEN CD - A Ninja Tune Retrospective - 2004 (2CD FLAC)CD214 - Funky Porcini - Purrfect.wav
    Peak level 98.8 %
    Extraction speed 3.9 X
    Track quality 99.9 %
    Test CRC E2F779E2
    Copy CRC E2F779E2
    Accurately ripped (confidence 16) 54766249 (AR v2)
    Copy OK
    Track 15
    Filename D: ZEN CD - A Ninja Tune Retrospective - 2004 (2CD FLAC)CD215 - The Herbaliser - Something Wicked.wav
    Peak level 100.0 %
    Extraction speed 5.4 X
    Track quality 100.0 %
    Test CRC 5C0125E4
    Copy CRC 5C0125E4
    Accurately ripped (confidence 16) C568DA18 (AR v2)
    Copy OK
    All tracks accurately ripped
    No errors occurred
    End of status report
    ---- CUETools DB Plugin V2.1.6
    CTDB TOCID: UuhzS9Q6lfIBcOXsixqku1QeB4E- found
    Submit result: UuhzS9Q6lfIBcOXsixqku1QeB4E- has been confirmed
    Track | CTDB Status
    1 | (25/25) Accurately ripped
    2 | (25/25) Accurately ripped
    3 | (25/25) Accurately ripped
    4 | (25/25) Accurately ripped
    5 | (25/25) Accurately ripped
    6 | (25/25) Accurately ripped
    7 | (25/25) Accurately ripped
    8 | (25/25) Accurately ripped
    9 | (25/25) Accurately ripped
    10 | (25/25) Accurately ripped
    11 | (25/25) Accurately ripped
    12 | (25/25) Accurately ripped
    13 | (25/25) Accurately ripped
    14 | (25/25) Accurately ripped
    15 | (25/25) Accurately ripped
    ==== Log checksum 3E987D57973467E0AC938B0EF93EDA86D1C8DE6927A6CA0E12CBCF6CD0FD849E ====

    REM GENRE Electronic
    REM DATE 2004
    REM DISCID D3127B0F
    REM COMMENT ExactAudioCopy v1.1
    PERFORMER Various Artists
    TITLE Zen CD: A Ninja Tune Retrospective
    FILE 01 - Coldcut - More Beats Pieces.wav WAVE
    TRACK 01 AUDIO
    PERFORMER Coldcut
    TITLE More Beats Pieces
    INDEX 01 00: 00: 00
    FILE 02 - DJ Vadim - Terrorist.wav WAVE
    TRACK 02 AUDIO
    PERFORMER DJ Vadim
    TITLE Terrorist
    INDEX 01 00: 00: 00
    FILE 03 - Kid Koala - Fender Bender.wav WAVE
    TRACK 03 AUDIO
    PERFORMER Kid Koala
    TITLE Fender Bender
    INDEX 01 00: 00: 00
    FILE 04 - DJ Vadim - Your Revolution.wav WAVE
    TRACK 04 AUDIO
    PERFORMER DJ Vadim
    TITLE Your Revolution
    INDEX 01 00: 00: 00
    FILE 05 - The Herbaliser - Mr Chombee Has The Flaw.wav WAVE
    TRACK 05 AUDIO
    PERFORMER The Herbaliser
    TITLE Mr Chombee Has The Flaw
    INDEX 01 00: 00: 00
    FILE 06 - Mr Scruff - Shrimp.wav WAVE
    TRACK 06 AUDIO
    PERFORMER Mr Scruff
    TITLE Shrimp
    INDEX 01 00: 00: 00
    FILE 07 - The Herbaliser - The Blend.wav WAVE
    TRACK 07 AUDIO
    PERFORMER The Herbaliser
    TITLE The Blend
    INDEX 01 00: 00: 00
    FILE 08 - 9 Lazy 9 - Black Jesus.wav WAVE
    TRACK 08 AUDIO
    PERFORMER 9 Lazy 9
    TITLE Black Jesus
    INDEX 01 00: 00: 00
    FILE 09 - Up, Bustle Out - Aqui No Ma.wav WAVE
    TRACK 09 AUDIO
    PERFORMER Up, Bustle Out
    TITLE Aqui No Ma
    INDEX 01 00: 00: 00
    FILE 10 - Cinematic Orchestra - Channel 1 Suite.wav WAVE
    TRACK 10 AUDIO
    PERFORMER Cinematic Orchestra
    TITLE Channel 1 Suite
    INDEX 01 00: 00: 00
    FILE 11 - Amon Tobin - Deo.wav WAVE
    TRACK 11 AUDIO
    PERFORMER Amon Tobin
    TITLE Deo
    INDEX 01 00: 00: 00
    FILE 12 - Cinematic Orchestra - All Things To All Men.wav WAVE
    TRACK 12 AUDIO
    PERFORMER Cinematic Orchestra
    TITLE All Things To All Men
    INDEX 01 00: 00: 00
    FILE 13 - Jaga Jazzist - Lithuania.wav WAVE
    TRACK 13 AUDIO
    PERFORMER Jaga Jazzist
    TITLE Lithuania
    INDEX 01 00: 00: 00
    FILE 14 - Funky Porcini - Purrfect.wav WAVE
    TRACK 14 AUDIO
    PERFORMER Funki Porcini
    TITLE Purrfect
    INDEX 01 00: 00: 00
    FILE 15 - The Herbaliser - Something Wicked.wav WAVE
    TRACK 15 AUDIO
    PERFORMER The Herbaliser
    TITLE Something Wicked
    INDEX 01 00: 00: 00
    Время раздачи: 12/7


    VA - ZEN CD - A Ninja Tune Retrospective (2004) Ninja Tune [FLAC|Lossless|tracks+.cue] <Leftfield, Trip Hop, Downtempo>
    Рейтинг →
     (голосов: 1, оценка 3/5, голосовать можно 1 раз )

    Другие торренты по теме:

  • Portico - Living Fields (2015) Ninja Tune [FLAC|Lossless|WEB-DL|tracks] <Downtempo, IDM, Broken Beat, Ambient>
  • Funki Porcini - Discography 24 Releases (1995-2013) Ninja Tune [FLAC|Lossless|tracks+.cue, tracks] <Downtempo, Breaks, Future Jazz, Trip Hop>
  • Bonobo - Discography 36 Releases (2000-2017) Ninja Tune [FLAC|Lossless|tracks+.cue, tracks] <Downtempo, Future Jazz, Ambient, Trip Hop, Leftfield, Soul>
  • Forest Swords - Compassion (2017) Ninja Tune [FLAC|Lossless|WEB-DL|tracks] <Experimental, Tribal, Leftfield>
  • Actress - AZD (2017) Ninja Tune [FLAC|Lossless|WEB-DL|tracks] <Experimental, Techno, Minimal>
  • Andrew Coleman | Animals On Wheels - Discography 4 Releases (1997-2001) Ninja Tune, Ntone [FLAC|Lossless|tracks+.cue] <IDM, Downtempo, Drum n Bass, Future Jazz>
  • 9 Lazy 9 - Discography 6 Releases (1994-2011) Ninja Tune [FLAC|Lossless|tracks+.cue, tracks] <Downtempo, Future Jazz, Trip Hop, Breakbeat, Breaks>
  • Funki Porcini - Discography 26 Releases (1995-2018) Ninja Tune [FLAC|Lossless|tracks+.cue, tracks] <Downtempo, Breaks, Future Jazz, Trip Hop>


    • Комментарии (0):

      Информация

      Информация

        Посетители, находящиеся в группе Гости, не могут оставлять комментарии в данной новости.

        ↓ Меню




        ↓ Опрос

        Вы добавили сайт в закладки?
        Да
        Нет


        Популярное

        Чиж & Co - Коллекция легендарных песен (2014) [MP3|320 кб / с]<Rock> скачать через торрент бесплатно

        (скачиваний: 167)
        Paul Mauriat - Дискография (1967-2005) 320 кб / с (1967-2005) [MP3|320]<Instrumental>

        (скачиваний: 62)
        ДиДюЛя - 17 альбомов (2000-2017) дискография [MP3|320 кб / с] <Фолк,Фламенко,Фьюжн>

        (скачиваний: 54)
        Marie Laforet - Lintegrale Festival 1960 / 1970 (1998) [MP3|320 kbps]<French pop, сhanson>

        (скачиваний: 53)
        И. С. Бах (J. S. Bach) - Полное собрание произведений (Hanssler 172 CD) (2000) [MP3|320 кб / с] <Classical>

        (скачиваний: 42)
        Дмитрий Маликов - 12 альбомов (1993-2017) [MP3|320 Kbps] <Рор>

        (скачиваний: 40)
        Louna - The Best Of (2015) [MP3|320 кб / с]<Rock> скачать через торрент бесплатно

        (скачиваний: 39)
        Дима Билан - 12 альбомов, 4 сингла (2003 - 2017) [MP3|320 Kbps] <Pop>

        (скачиваний: 36)
        Юлия Славянская - шесть альбомов (2002-2016) [MP3|320 кб / с]<Православная духовная музыка> [Обновлено 04.02.2019]

        (скачиваний: 34)
        George Michael - 77 Albums (1984-2012) 88 CD [MP3|192 - 320 kbps]<Pop, Dance, Soul> скачать через торрент бесплатно

        (скачиваний: 29)