.
Авторизация | Регистрация
bitok.xyz
» » Leprous - Pitfalls (2019) [FLAC|Lossless|image + .cue] <Progressive Rock, Progressive Metal, Avantgarde Metal> торрент скачать бесплатно


    Leprous - Pitfalls (2019) [FLAC|Lossless|image + .cue] <Progressive Rock, Progressive Metal, Avantgarde Metal> торрент скачать бесплатно

    Дата: 19-12-2019, 05:00 | .torrent скачали: 0

    Leprous - Pitfalls (2019) [FLAC|Lossless|image + .cue] &ltProgressive Rock, Progressive Metal, Avantgarde Metal>Жанр: Progressive Rock, Progressive Metal, Avantgarde Metal
    Издание: InsideOut Music - IOMCD 538
    Источник (релизер): BACKLASH (MMT)
    Продолжительность: 00: 55: 09
    Кодек: FLAC
    Битрейт: Lossless
    Тип рипа: image + .cue
    Наличие сканов: Да, полные


    Треклист

    01. Below (5: 53)
    02. I Lose Hope (4: 44)
    03. Observe the Train (5: 08)
    04. By My Throne (5: 45)
    05. Alleviate (3: 42)
    06. At the Bottom (7: 21)
    07. Distant Bells (7: 23)
    08. Foreigner (3: 52)
    09. The Sky Is Red (11: 22) Код: выделить все
    Exact Audio Copy V1.3 from 2. September 2016
    EAC extraction logfile from 8. November 2019, 19:35
    Leprous/Pitfalls
    Used drive : HL-DT-STDVDRAM GH24NSD1 Adapter: 1 ID: 0
    Read mode : Secure
    Utilize accurate stream : Yes
    Defeat audio cache : Yes
    Make use of C2 pointers : No
    Read offset correction : 6
    Overread into Lead-In and Lead-Out : No
    Fill up missing offset samples with silence : Yes
    Delete leading and trailing silent blocks : No
    Null samples used in CRC calculations : Yes
    Used interface : Native Win32 interface for Win NT 2000
    Used output format : User Defined Encoder
    Selected bitrate : 896 kBit/s
    Quality : High
    Add ID3 tag : No
    Command line compressor : C:Program Files (x86)Exact Audio CopyFlacflac.exe
    Additional command line options : -6 -V %source%
    TOC of the extracted CD
    Track | Start | Length | Start sector | End sector
    ---------------------------------------------------------
    1 | 0:00.00 | 5:52.42 | 0 | 26441
    2 | 5:52.42 | 4:44.29 | 26442 | 47770
    3 | 10:36.71 | 5:07.54 | 47771 | 70849
    4 | 15:44.50 | 5:44.68 | 70850 | 96717
    5 | 21:29.43 | 3:42.31 | 96718 | 113398
    6 | 25:11.74 | 7:21.13 | 113399 | 146486
    7 | 32:33.12 | 7:22.54 | 146487 | 179690
    8 | 39:55.66 | 3:51.51 | 179691 | 197066
    9 | 43:47.42 | 11:21.42 | 197067 | 248183
    Range status and errors
    Selected range
    Filename C:UsersUserMusicEACLeprous - PitfallsLeprous - Pitfalls.wav
    Peak level 99.8 %
    Extraction speed 7.1 X
    Range quality 100.0 %
    Test CRC 3A1A6D1D
    Copy CRC 3A1A6D1D
    Copy OK
    No errors occurred
    AccurateRip summary
    Track 1 not present in database
    Track 2 not present in database
    Track 3 not present in database
    Track 4 not present in database
    Track 5 not present in database
    Track 6 not present in database
    Track 7 not present in database
    Track 8 not present in database
    Track 9 not present in database
    None of the tracks are present in the AccurateRip database
    End of status report
    ---- CUETools DB Plugin V2.1.6
    [CTDB TOCID: yRjnOZrmCznltbKD6TiBYaxcVHY-] found
    Submit result: yRjnOZrmCznltbKD6TiBYaxcVHY- has been confirmed
    Track | CTDB Status
    1 | (28/28) Accurately ripped
    2 | (28/28) Accurately ripped
    3 | (28/28) Accurately ripped
    4 | (28/28) Accurately ripped
    5 | (28/28) Accurately ripped
    6 | (28/28) Accurately ripped
    7 | (28/28) Accurately ripped
    8 | (28/28) Accurately ripped
    9 | (27/28) Accurately ripped
    ==== Log checksum 7AA252A3D251D92B2289E8ED775452F64670E5A270CB3C99A3773E4E3C7DF243 ====


    Leprous - Pitfalls (2019) [FLAC|Lossless|image + .cue] <Progressive Rock, Progressive Metal, Avantgarde Metal>
    Рейтинг →
     (голосов: 1, оценка 3/5, голосовать можно 1 раз )

    Другие торренты по теме:

  • Leprous - The Congregation (2015) [FLAC|Lossless]<Progressive Metal> скачать через торрент бесплатно
  • Leprous - Malina (2017) [MP3|320 Kbps] <Progressive Metal, Progressive Rock>
  • Leprous - Malina (2017) [FLAC|Lossless|image + .cue] <Progressive Rock, Progressive Metal, Avantgarde Metal>


    • Комментарии (0):

      Информация

      Информация

        Посетители, находящиеся в группе Гости, не могут оставлять комментарии в данной новости.

        ↓ Меню




        ↓ Опрос

        Вы добавили сайт в закладки?
        Да
        Нет


        Популярное

        ДиДюЛя - 17 альбомов (2000-2017) дискография [MP3|320 кб / с] <Фолк,Фламенко,Фьюжн>

        (скачиваний: 157)
        Чиж & Co - Коллекция легендарных песен (2014) [MP3|320 кб / с]<Rock> скачать через торрент бесплатно

        (скачиваний: 143)
        Стас Намин и Группа ЦВЕТЫ - 40 лет (Полная версия концерта) - Crocus Hall (Live) (2010) HDTVRip [AVC / H.264, 1080p]

        (скачиваний: 103)
        VA - Большая коллекция клипов в авто (2DIN) (2000-2016) SATRip

        (скачиваний: 101)
        The Beatles - Collection of video clips (1964-1983) HDTV [720p] скачать через торрент бесплатно

        (скачиваний: 54)
        Дима Билан - 12 альбомов, 4 сингла (2003 - 2017) [MP3|320 Kbps] <Pop>

        (скачиваний: 49)
        Александр Марцинкевич и группа Кабриолет - Лучших 50 песен (2016) Compilation [FLAC|Lossless|WEB-DL|tracks] <Chanson>

        (скачиваний: 43)
        Голубой огонек - "В первый час..." (1965) SATRip [H.264] [colourization] скачать через торрент бесплатно

        (скачиваний: 41)
        Канцлер Ги - 17 альбомов (2002-2017) [MP3|97-320 kbps]<Нео-Фолк / блюз>

        (скачиваний: 36)
        Демис Руссос - Лучшее (2010) 4CD [MP3|320 кб / с]<Pop>

        (скачиваний: 36)