.
Авторизация | Регистрация
bitok.xyz
» » Timo Tolkki - Classical Variations And Themes (1994) Reissue, 1996, NEMS Enterprises [FLAC|Lossless|image + .cue] <Heavy Metal> торрент скачать бесплатно


    Timo Tolkki - Classical Variations And Themes (1994) Reissue, 1996, NEMS Enterprises [FLAC|Lossless|image + .cue] <Heavy Metal> торрент скачать бесплатно

    Дата: 21-12-2019, 05:00 | .torrent скачали: 1

    Timo Tolkki - Classical Variations And Themes (1994) Reissue, 1996, NEMS Enterprises [FLAC|Lossless|image + .cue] &ltHeavy Metal>Жанр: Heavy Metal
    Издание: NEMS Enterprises - NEMS 12
    Источник (релизер): Rivfader (MMT)
    Продолжительность: 00: 41: 37
    Кодек: FLAC
    Битрейт: Lossless
    Тип рипа: image + .cue
    Наличие сканов: Да, полные


    Треклист

    01. Lord Of The Rings (5: 41)
    02. Fire Dance Suite (4: 58)
    03. Guitar Concerto (2: 53)
    04. Northen Lights (2: 18)
    05. Capriccio In A Minor (0: 24)
    06. Back To The Ice Age (4: 48)
    07. Death Of The Swan (3: 54)
    08. Soldiers Prayer (4: 05)
    09. Flying Samir (3: 02)
    10. Sunwinds (2: 41)
    11. Greensleeves (2: 05)
    12. Solitude (4: 47) Код: выделить все
    Exact Audio Copy V1.0 beta 3 from 29. August 2011
    EAC extraction logfile from 10. November 2013, 19:19
    Timo Tolkki/Classical Variations and Themes
    Used drive : TSSTcorpCDDVDW SE-S084F Adapter: 1 ID: 0
    Read mode : Secure
    Utilize accurate stream : Yes
    Defeat audio cache : Yes
    Make use of C2 pointers : No
    Read offset correction : 6
    Overread into Lead-In and Lead-Out : No
    Fill up missing offset samples with silence : Yes
    Delete leading and trailing silent blocks : No
    Null samples used in CRC calculations : Yes
    Used interface : Native Win32 interface for Win NT 2000
    Used output format : User Defined Encoder
    Selected bitrate : 32 kBit/s
    Quality : High
    Add ID3 tag : Yes
    Command line compressor : C:Program Files (x86)Exact Audio CopyFLAC.EXE
    Additional command line options : -8 -V -T ARTIST=%artist% -T TITLE=%title% -T ALBUM=%albumtitle% -T DATE=%year% -T TRACKNUMBER=%tracknr% -T GENRE=%genre% -T COMMENT=%comment% %source% -o %dest%
    TOC of the extracted CD
    Track | Start | Length | Start sector | End sector
    ---------------------------------------------------------
    1 | 0:00.00 | 5:41.22 | 0 | 25596
    2 | 5:41.22 | 4:58.15 | 25597 | 47961
    3 | 10:39.37 | 2:52.38 | 47962 | 60899
    4 | 13:32.00 | 2:17.74 | 60900 | 71248
    5 | 15:49.74 | 0:24.33 | 71249 | 73081
    6 | 16:14.32 | 4:48.02 | 73082 | 94683
    7 | 21:02.34 | 3:54.12 | 94684 | 112245
    8 | 24:56.46 | 4:05.00 | 112246 | 130620
    9 | 29:01.46 | 3:02.25 | 130621 | 144295
    10 | 32:03.71 | 2:40.41 | 144296 | 156336
    11 | 34:44.37 | 2:05.06 | 156337 | 165717
    12 | 36:49.43 | 4:47.04 | 165718 | 187246
    Range status and errors
    Selected range
    Filename H:MUSICRivfader [MeTaLMaDNeSS.TeaM]Timo Tolkki - Classical Variations and Themes.wav
    Peak level 96.6 %
    Extraction speed 4.0 X
    Range quality 99.9 %
    Test CRC FD0D1181
    Copy CRC FD0D1181
    Copy OK
    No errors occurred
    AccurateRip summary
    Track 1 accurately ripped (confidence 1) [5014570D] (AR v2)
    Track 2 accurately ripped (confidence 1) [79A5A162] (AR v2)
    Track 3 accurately ripped (confidence 1) [EC8C5702] (AR v2)
    Track 4 accurately ripped (confidence 1) [5C838D95] (AR v2)
    Track 5 accurately ripped (confidence 1) [502573C5] (AR v2)
    Track 6 accurately ripped (confidence 1) [5475C19E] (AR v2)
    Track 7 accurately ripped (confidence 1) [06852037] (AR v2)
    Track 8 accurately ripped (confidence 1) [7CA9A23F] (AR v2)
    Track 9 accurately ripped (confidence 1) [0E01A037] (AR v2)
    Track 10 accurately ripped (confidence 1) [A5766CAC] (AR v2)
    Track 11 accurately ripped (confidence 1) [DA7E37B2] (AR v2)
    Track 12 accurately ripped (confidence 1) [5F414678] (AR v2)
    All tracks accurately ripped
    End of status report
    ---- CUETools DB Plugin V2.1.3
    [CTDB TOCID: Sod.qf1efEAGPXU9hktbwgbjcNg-] disk not present in database, Submit result: database access error: Anulada la solicitud: La solicitud fue cancelada.
    ==== Log checksum CA877295AC6EE8DD78E69068163C0C8149288881B4AD3DDC452046C1CFE2351C ====



    Поглощение/вытеснение
    Только с согласия релизера

    Beijing65

    Timo Tolkki - Classical Variations And Themes (1994) Reissue, 1996, NEMS Enterprises [FLAC|Lossless|image + .cue] <Heavy Metal>
    Рейтинг →
     (голосов: 1, оценка 4/5, голосовать можно 1 раз )

    Другие торренты по теме:

  • Chaos Magic (Timo Tolkki & Caterina) - Chaos Magic (2015) [MP3|320 кб / с]<Symphonic Power Metal> скачать через торрент бесплатно
  • Chaos Magic (Timo Tolkki & Caterina) - Chaos Magic (2015) [FLAC|Lossless]<Symphonic Power Metal> скачать через торрент бесплатно
  • Timo Tolkki - Hymn to Life (2002) [FLAC|Lossless|image + .cue]<Symphonic, Melodic Power Metal>


    • Комментарии (0):

      Информация

      Информация

        Посетители, находящиеся в группе Гости, не могут оставлять комментарии в данной новости.

        ↓ Меню




        ↓ Опрос

        Вы добавили сайт в закладки?
        Да
        Нет


        Популярное

        ДиДюЛя - 17 альбомов (2000-2017) дискография [MP3|320 кб / с] <Фолк,Фламенко,Фьюжн>

        (скачиваний: 157)
        Чиж & Co - Коллекция легендарных песен (2014) [MP3|320 кб / с]<Rock> скачать через торрент бесплатно

        (скачиваний: 140)
        Стас Намин и Группа ЦВЕТЫ - 40 лет (Полная версия концерта) - Crocus Hall (Live) (2010) HDTVRip [AVC / H.264, 1080p]

        (скачиваний: 102)
        VA - Большая коллекция клипов в авто (2DIN) (2000-2016) SATRip

        (скачиваний: 100)
        The Beatles - Collection of video clips (1964-1983) HDTV [720p] скачать через торрент бесплатно

        (скачиваний: 54)
        Дима Билан - 12 альбомов, 4 сингла (2003 - 2017) [MP3|320 Kbps] <Pop>

        (скачиваний: 49)
        Александр Марцинкевич и группа Кабриолет - Лучших 50 песен (2016) Compilation [FLAC|Lossless|WEB-DL|tracks] <Chanson>

        (скачиваний: 43)
        Голубой огонек - "В первый час..." (1965) SATRip [H.264] [colourization] скачать через торрент бесплатно

        (скачиваний: 41)
        Демис Руссос - Лучшее (2010) 4CD [MP3|320 кб / с]<Pop>

        (скачиваний: 36)
        Канцлер Ги - 17 альбомов (2002-2017) [MP3|97-320 kbps]<Нео-Фолк / блюз>

        (скачиваний: 36)