.
Авторизация | Регистрация
bitok.xyz
» » Timo Tolkkis Avalon - 3 Albums (2013-2019) 5CD [FLAC|WavPack|Lossless|image + .cue] <Symphonic Power Metal> торрент скачать бесплатно


    Timo Tolkkis Avalon - 3 Albums (2013-2019) 5CD [FLAC|WavPack|Lossless|image + .cue] <Symphonic Power Metal> торрент скачать бесплатно

    Дата: 21-12-2019, 05:00 | .torrent скачали: 1

    Timo Tolkkis Avalon - 3 Albums (2013-2019) 5CD [FLAC|WavPack|Lossless|image + .cue] &ltSymphonic Power Metal>Издание: Frontiers Records - FR CDVD 600
    Особенность релиза: Limited Edition, Digipak
    Продолжительноcть: 00: 50: 54

    Треклиcт:
    01. Avalanche Anthem (4: 53)
    02. A World Without Us (5: 43)
    03. Enshrined In My Memory (4: 07)
    04. In The Name Of The Rose (4: 28)
    05. We Will Find A Way (4: 25)
    06. Shine (3: 36)
    07. The Magic Of The Night (4: 44)
    08. To The Edge Of The Earth (5: 02)
    09. I’ll Sing You Home (5: 03)
    10. The Land Of New Hope (8: 54) Код: выделить всеExact Audio Copy V1.1 from 23. June 2015
    EAC extraction logfile from 27. October 2015, 18:57
    Timo Tolkki\'s Avalon/The Land Of New Hope (Deluxe Edition)
    Used drive : HP DVD Writer 1170d Adapter: 1 ID: 1
    Read mode : Secure
    Utilize accurate stream : Yes
    Defeat audio cache : Yes
    Make use of C2 pointers : No
    Read offset correction : 6
    Overread into Lead-In and Lead-Out : No
    Fill up missing offset samples with silence : Yes
    Delete leading and trailing silent blocks : No
    Null samples used in CRC calculations : Yes
    Used interface : Native Win32 interface for Win NT 2000
    Used output format : User Defined Encoder
    Selected bitrate : 1024 kBit/s
    Quality : High
    Add ID3 tag : No
    Command line compressor : C:Program Files (x86)Exact Audio CopyFLACFLAC.EXE
    Additional command line options : -V -8 -T Date=%year% -T Genre=%genre% -TCOMMENT=Ripped by Ungern666 -8 -V %source%
    TOC of the extracted CD
    Track | Start | Length | Start sector | End sector
    ---------------------------------------------------------
    1 | 0:00.00 | 4:52.67 | 0 | 21966
    2 | 4:52.67 | 5:42.71 | 21967 | 47687
    3 | 10:35.63 | 4:07.09 | 47688 | 66221
    4 | 14:42.72 | 4:28.26 | 66222 | 86347
    5 | 19:11.23 | 4:24.38 | 86348 | 106185
    6 | 23:35.61 | 3:36.31 | 106186 | 122416
    7 | 27:12.17 | 4:43.52 | 122417 | 143693
    8 | 31:55.69 | 5:02.11 | 143694 | 166354
    9 | 36:58.05 | 5:02.52 | 166355 | 189056
    10 | 42:00.57 | 8:53.44 | 189057 | 229075
    Range status and errors
    Selected range
    Filename C:EACUngern666Timo Tolkki\'s Avalon - The Land Of New Hope (Deluxe Edition).wav
    Peak level 99.9 %
    Extraction speed 7.0 X
    Range quality 100.0 %
    Test CRC F8304E1B
    Copy CRC F8304E1B
    Copy OK
    No errors occurred
    AccurateRip summary
    Track 1 accurately ripped (confidence 25) [DF596266] (AR v2)
    Track 2 accurately ripped (confidence 25) [02ED22D0] (AR v2)
    Track 3 accurately ripped (confidence 25) [9C85B640] (AR v2)
    Track 4 accurately ripped (confidence 25) [5FFA084C] (AR v2)
    Track 5 accurately ripped (confidence 25) [8F2E941D] (AR v2)
    Track 6 accurately ripped (confidence 25) [97CC987B] (AR v2)
    Track 7 accurately ripped (confidence 25) [514E152C] (AR v2)
    Track 8 accurately ripped (confidence 25) [99FB73B8] (AR v2)
    Track 9 accurately ripped (confidence 25) [0699B327] (AR v2)
    Track 10 accurately ripped (confidence 25) [1F7CE67F] (AR v2)
    All tracks accurately ripped
    End of status report
    ---- CUETools DB Plugin V2.1.6
    [CTDB TOCID: a8_mYM1XjXB04aVCWIRIM3mHM1Y-] found
    Submit result: a8_mYM1XjXB04aVCWIRIM3mHM1Y- has been confirmed
    Track | CTDB Status
    1 | (33/33) Accurately ripped
    2 | (33/33) Accurately ripped
    3 | (33/33) Accurately ripped
    4 | (33/33) Accurately ripped
    5 | (33/33) Accurately ripped
    6 | (33/33) Accurately ripped
    7 | (33/33) Accurately ripped
    8 | (33/33) Accurately ripped
    9 | (33/33) Accurately ripped
    10 | (32/33) Accurately ripped
    ==== Log checksum B3E2414C0F6CA7E3CD305DC1A3793A4EEC470EA48C374C51CD746C34903BECFE ====


    Timo Tolkkis Avalon - 3 Albums (2013-2019) 5CD [FLAC|WavPack|Lossless|image + .cue] <Symphonic Power Metal>
    Рейтинг →
     (голосов: 1, оценка 4/5, голосовать можно 1 раз )

    Другие торренты по теме:

  • Chaos Magic (Timo Tolkki & Caterina) - Chaos Magic (2015) [MP3|320 кб / с]<Symphonic Power Metal> скачать через торрент бесплатно
  • Chaos Magic (Timo Tolkki & Caterina) - Chaos Magic (2015) [FLAC|Lossless]<Symphonic Power Metal> скачать через торрент бесплатно
  • Timo Tolkki - Hymn to Life (2002) [FLAC|Lossless|image + .cue]<Symphonic, Melodic Power Metal>
  • Timo Gross - Heavy Soul (2016) [FLAC|Lossless|image + .cue] <Blues Rock>
  • Timo Gross - Its All About Love (2014) [FLAC|Lossless|image + .cue] <Blues Rock>
  • Timo Gross - Fallen From Grace (2011) [APE|Lossless|image + .cue] <Blues Rock>
  • VA - Timo Maas - Best275z (1999 - 2014) [MP3|320 Kbps] <Progressive House, Electronica, Breakbeat, UK Garage, Trip Hop>
  • Timo Tolkki - Classical Variations And Themes (1994) Reissue, 1996, NEMS Enterprises [FLAC|Lossless|image + .cue] <Heavy Metal>


    • Комментарии (0):

      Информация

      Информация

        Посетители, находящиеся в группе Гости, не могут оставлять комментарии в данной новости.

        ↓ Меню




        ↓ Опрос

        Вы добавили сайт в закладки?
        Да
        Нет


        Популярное

        ДиДюЛя - 17 альбомов (2000-2017) дискография [MP3|320 кб / с] <Фолк,Фламенко,Фьюжн>

        (скачиваний: 155)
        Чиж & Co - Коллекция легендарных песен (2014) [MP3|320 кб / с]<Rock> скачать через торрент бесплатно

        (скачиваний: 140)
        Стас Намин и Группа ЦВЕТЫ - 40 лет (Полная версия концерта) - Crocus Hall (Live) (2010) HDTVRip [AVC / H.264, 1080p]

        (скачиваний: 102)
        VA - Большая коллекция клипов в авто (2DIN) (2000-2016) SATRip

        (скачиваний: 100)
        The Beatles - Collection of video clips (1964-1983) HDTV [720p] скачать через торрент бесплатно

        (скачиваний: 53)
        Дима Билан - 12 альбомов, 4 сингла (2003 - 2017) [MP3|320 Kbps] <Pop>

        (скачиваний: 47)
        Александр Марцинкевич и группа Кабриолет - Лучших 50 песен (2016) Compilation [FLAC|Lossless|WEB-DL|tracks] <Chanson>

        (скачиваний: 43)
        Голубой огонек - "В первый час..." (1965) SATRip [H.264] [colourization] скачать через торрент бесплатно

        (скачиваний: 41)
        Демис Руссос - Лучшее (2010) 4CD [MP3|320 кб / с]<Pop>

        (скачиваний: 36)
        Канцлер Ги - 17 альбомов (2002-2017) [MP3|97-320 kbps]<Нео-Фолк / блюз>

        (скачиваний: 36)