.
Авторизация | Регистрация
bitok.xyz
» » VA - Musik (Vanity Records) (1981 / 2019) Kyou Records | Reissue, Remastered [FLAC|Lossless|tracks+.cue] <Experimental, Abstract, Minimal> торрент скачать бесплатно


    VA - Musik (Vanity Records) (1981 / 2019) Kyou Records | Reissue, Remastered [FLAC|Lossless|tracks+.cue] <Experimental, Abstract, Minimal> торрент скачать бесплатно

    Дата: 22-12-2019, 05:00 | .torrent скачали: 0

    VA - Musik (Vanity Records) (1981 / 2019) Kyou Records | Reissue, Remastered [FLAC|Lossless|tracks+.cue] &ltExperimental, Abstract, Minimal>
    MUSIK is a compilation of demo tapes by thirteen artists that were sent to Vanity from all over Japan. It is a monumental album that introduces early Japanese home recording music and that was originally released in 1981 as a double vinyl box set through Vanity. This is the first time that it is reissued on CD. All tracks included in this 2-CD box set were digitally mastered from the original master tapes.
    Жанр : Experimental, Abstract, Minimal •Страна : Japan •Год издания : 2019 •Тип издания : CD
    Аудиокодек : FLAC (*.flac) •Тип рипа : tracks+.cue •Продолжительность : 01: 23: 09 •Источник : RED
    Треклист :
    Продолжительноcть : 00: 41: 04
    Треклист :
    01. Pessimist - Sattyuzai (02: 57)
    02. Un Able Mirror - Hischool Pigs (03: 38)
    03. Un Able Mirror - Ignorant Animal (03: 21)
    04. Mr - 213 (08: 08)
    05. Adode/Cathode - …Of The Passive Voice Through The Light (03: 46)
    06. Kiiro Radical - Denki Noise Dance (04: 21)
    07. Kiiro Radical - Denki Noise Dance (03: 41)
    08. Kiiro Radical - Denki Noise Dance (02: 47)
    09. Kiiro Radical - Denki Noise Dance (02: 22)
    10. Kiiro Radical - Denki Noise Dance (03: 14)
    11. Tokyo - Cassette Tape (02: 49)

    X Lossless Decoder version 20191004 (152.0)
    XLD extraction logfile from 2019-12-07 04: 01: 26 -0500
    Various Artists/Musik (Vanity Records)
    Used drive : PIONEER BD-RW BDR-XD05 (revision 3.10)
    Media type : Pressed CD
    Ripper mode : XLD Secure Ripper
    Disable audio cache : OK for the drive with a cache less than 1375KiB
    Make use of C2 pointers : NO
    Read offset correction : 667
    Max retry count : 20
    Gap status : Analyzed, Appended (except HTOA)
    TOC of the extracted CD
    Track | Start | Length | Start sector | End sector
    ---------------------------------------------------------
    1 | 00: 00: 00 | 02: 57: 37 | 0 | 13311
    2 | 02: 57: 37 | 03: 38: 22 | 13312 | 29683
    3 | 06: 35: 59 | 03: 21: 00 | 29684 | 44758
    4 | 09: 56: 59 | 08: 08: 37 | 44759 | 81395
    5 | 18: 05: 21 | 03: 46: 00 | 81396 | 98345
    6 | 21: 51: 21 | 04: 20: 49 | 98346 | 117894
    7 | 26: 11: 70 | 03: 40: 46 | 117895 | 134440
    8 | 29: 52: 41 | 02: 46: 52 | 134441 | 146942
    9 | 32: 39: 18 | 02: 22: 14 | 146943 | 157606
    10 | 35: 01: 32 | 03: 13: 73 | 157607 | 172154
    11 | 38: 15: 30 | 02: 49: 19 | 172155 | 184848
    AccurateRip Summary (DiscID: 001206cb-009baf84-a409a00b)
    Track 01 : OK (v2, confidence 1/1)
    Track 02 : OK (v2, confidence 1/1)
    Track 03 : OK (v2, confidence 1/1)
    Track 04 : OK (v2, confidence 1/1)
    Track 05 : OK (v2, confidence 1/1)
    Track 06 : OK (v2, confidence 1/1)
    Track 07 : OK (v2, confidence 1/1)
    Track 08 : OK (v2, confidence 1/1)
    Track 09 : OK (v2, confidence 1/1)
    Track 10 : OK (v2, confidence 1/1)
    Track 11 : OK (v2, confidence 1/1)
    -All tracks accurately ripped.
    All Tracks
    Album gain : -6.12 dB
    Peak : 0.999969
    Statistics
    Read error : 0
    Jitter error (maybe fixed) : 0
    Retry sector count : 0
    Damaged sector count : 0
    Track 01
    Filename : /Users/jhmac/Music/XLD rips/Compilations - Musik (Vanity Records) (2019) FLAC/01 Sattyuzai.flac
    Pre-gap length : 00: 02: 00
    Track gain : -6.27 dB
    Peak : 0.999969
    CRC32 hash (test run) : ACD7E499
    CRC32 hash : ACD7E499
    CRC32 hash (skip zero) : 64960D7D
    AccurateRip v1 signature : 3FAD8EA0
    AccurateRip v2 signature : 3ECA8C6C
    -Accurately ripped (v2, confidence 1/1)
    Statistics
    Read error : 0
    Jitter error (maybe fixed) : 0
    Retry sector count : 0
    Damaged sector count : 0
    Track 02
    Filename : /Users/jhmac/Music/XLD rips/Compilations - Musik (Vanity Records) (2019) FLAC/02 Hischool Pigs.flac
    Track gain : -5.42 dB
    Peak : 0.999969
    CRC32 hash (test run) : 36911258
    CRC32 hash : 36911258
    CRC32 hash (skip zero) : 1272724A
    AccurateRip v1 signature : 85B46E52
    AccurateRip v2 signature : 34D498A5
    -Accurately ripped (v2, confidence 1/1)
    Statistics
    Read error : 0
    Jitter error (maybe fixed) : 0
    Retry sector count : 0
    Damaged sector count : 0
    Track 03
    Filename : /Users/jhmac/Music/XLD rips/Compilations - Musik (Vanity Records) (2019) FLAC/03 Ignorant Animal.flac
    Track gain : -4.45 dB
    Peak : 0.999969
    CRC32 hash (test run) : D7F87911
    CRC32 hash : D7F87911
    CRC32 hash (skip zero) : B19880C3
    AccurateRip v1 signature : 5FB9AF7A
    AccurateRip v2 signature : 6DAA1867
    -Accurately ripped (v2, confidence 1/1)
    Statistics
    Read error : 0
    Jitter error (maybe fixed) : 0
    Retry sector count : 0
    Damaged sector count : 0
    Track 04
    Filename : /Users/jhmac/Music/XLD rips/Compilations - Musik (Vanity Records) (2019) FLAC/04 213.flac
    Track gain : -8.01 dB
    Peak : 0.999969
    CRC32 hash (test run) : E3FC2FC0
    CRC32 hash : E3FC2FC0
    CRC32 hash (skip zero) : B8BFFFB9
    AccurateRip v1 signature : 39B53B7C
    AccurateRip v2 signature : 59D62E88
    -Accurately ripped (v2, confidence 1/1)
    Statistics
    Read error : 0
    Jitter error (maybe fixed) : 0
    Retry sector count : 0
    Damaged sector count : 0
    Track 05
    Filename : /Users/jhmac/Music/XLD rips/Compilations - Musik (Vanity Records) (2019) FLAC/05 …Of The Passive Voice Through The Light.flac
    Track gain : -7.27 dB
    Peak : 0.999969
    CRC32 hash (test run) : EE6FE58A
    CRC32 hash : EE6FE58A
    CRC32 hash (skip zero) : 36E74EE7
    AccurateRip v1 signature : B58A95EF
    AccurateRip v2 signature : 2C3D10A9
    -Accurately ripped (v2, confidence 1/1)
    Statistics
    Read error : 0
    Jitter error (maybe fixed) : 0
    Retry sector count : 0
    Damaged sector count : 0
    Track 06
    Filename : /Users/jhmac/Music/XLD rips/Compilations - Musik (Vanity Records) (2019) FLAC/06 Denki Noise Dance.flac
    Track gain : -1.93 dB
    Peak : 0.999969
    CRC32 hash (test run) : 800745E3
    CRC32 hash : 800745E3
    CRC32 hash (skip zero) : 0EC63E08
    AccurateRip v1 signature : 6708C734
    AccurateRip v2 signature : 9E4E864C
    -Accurately ripped (v2, confidence 1/1)
    Statistics
    Read error : 0
    Jitter error (maybe fixed) : 0
    Retry sector count : 0
    Damaged sector count : 0
    Track 07
    Filename : /Users/jhmac/Music/XLD rips/Compilations - Musik (Vanity Records) (2019) FLAC/07 Denki Noise Dance.flac
    Track gain : -5.60 dB
    Peak : 0.999969
    CRC32 hash (test run) : 4FCB0620
    CRC32 hash : 4FCB0620
    CRC32 hash (skip zero) : FFC923C0
    AccurateRip v1 signature : 7BDC6273
    AccurateRip v2 signature : 0AF57E03
    -Accurately ripped (v2, confidence 1/1)
    Statistics
    Read error : 0
    Jitter error (maybe fixed) : 0
    Retry sector count : 0
    Damaged sector count : 0
    Track 08
    Filename : /Users/jhmac/Music/XLD rips/Compilations - Musik (Vanity Records) (2019) FLAC/08 Denki Noise Dance.flac
    Track gain : -7.13 dB
    Peak : 0.999969
    CRC32 hash (test run) : DB3B5BB7
    CRC32 hash : DB3B5BB7
    CRC32 hash (skip zero) : 5DA69868
    AccurateRip v1 signature : E7E8CEA0
    AccurateRip v2 signature : B0DC1BC1
    -Accurately ripped (v2, confidence 1/1)
    Statistics
    Read error : 0
    Jitter error (maybe fixed) : 0
    Retry sector count : 0
    Damaged sector count : 0
    Track 09
    Filename : /Users/jhmac/Music/XLD rips/Compilations - Musik (Vanity Records) (2019) FLAC/09 Denki Noise Dance.flac
    Track gain : -4.47 dB
    Peak : 0.999969
    CRC32 hash (test run) : FBEA5569
    CRC32 hash : FBEA5569
    CRC32 hash (skip zero) : DAB57A3F
    AccurateRip v1 signature : F2245975
    AccurateRip v2 signature : 3B04620F
    -Accurately ripped (v2, confidence 1/1)
    Statistics
    Read error : 0
    Jitter error (maybe fixed) : 0
    Retry sector count : 0
    Damaged sector count : 0
    Track 10
    Filename : /Users/jhmac/Music/XLD rips/Compilations - Musik (Vanity Records) (2019) FLAC/10 Denki Noise Dance.flac
    Track gain : -2.31 dB
    Peak : 0.999969
    CRC32 hash (test run) : F52E4EF1
    CRC32 hash : F52E4EF1
    CRC32 hash (skip zero) : 93346298
    AccurateRip v1 signature : 7FEC4D20
    AccurateRip v2 signature : 890AC71D
    -Accurately ripped (v2, confidence 1/1)
    Statistics
    Read error : 0
    Jitter error (maybe fixed) : 0
    Retry sector count : 0
    Damaged sector count : 0
    Track 11
    Filename : /Users/jhmac/Music/XLD rips/Compilations - Musik (Vanity Records) (2019) FLAC/11 Cassette Tape.flac
    Track gain : -5.71 dB
    Peak : 0.981110
    CRC32 hash (test run) : 56E39BB9
    CRC32 hash : 56E39BB9
    CRC32 hash (skip zero) : EEC57194
    AccurateRip v1 signature : 1612C4A0
    AccurateRip v2 signature : EFFD08B5
    -Accurately ripped (v2, confidence 1/1)
    Statistics
    Read error : 0
    Jitter error (maybe fixed) : 0
    Retry sector count : 0
    Damaged sector count : 0
    No errors occurred
    End of status report
    -----BEGIN XLD SIGNATURE-----
    CoQK5hXUv3uGRGl6GMQk5rpcGdL5dhFAtcjnybo3XufOIfl_Fy8iDkUhbBbwx9Robac6Ub3PdrWbeU_u3xre3swjDrSbRytrOBUk2d0
    -----END XLD SIGNATURE-----
    Продолжительноcть : 00: 42: 06
    Треклист :
    01. Daily Expression - Inka Sanka (07: 06)
    02. Daily Expression - Inka Sanka (02: 47)
    03. Plazma Music - Green Brain (03: 03)
    04. Nose - Dolby Nr On (05: 39)
    05. New York - 1976 (04: 35)
    06. Arbeit - Bunders Nachrichten Dienst (07: 04)
    07. Isolation - Invivo (03: 25)
    08. Necter Low - Artificial One (08: 27)

    X Lossless Decoder version 20191004 (152.0)
    XLD extraction logfile from 2019-12-07 04: 16: 58 -0500
    Various Artists/Musik (Vanity Records)
    Used drive : PIONEER BD-RW BDR-XD05 (revision 3.10)
    Media type : Pressed CD
    Ripper mode : XLD Secure Ripper
    Disable audio cache : OK for the drive with a cache less than 1375KiB
    Make use of C2 pointers : NO
    Read offset correction : 667
    Max retry count : 20
    Gap status : Analyzed, Appended (except HTOA)
    TOC of the extracted CD
    Track | Start | Length | Start sector | End sector
    ---------------------------------------------------------
    1 | 00: 00: 00 | 07: 06: 27 | 0 | 31976
    2 | 07: 06: 27 | 02: 46: 39 | 31977 | 44465
    3 | 09: 52: 66 | 03: 02: 51 | 44466 | 58166
    4 | 12: 55: 42 | 05: 38: 61 | 58167 | 83577
    5 | 18: 34: 28 | 04: 35: 21 | 83578 | 104223
    6 | 23: 09: 49 | 07: 04: 36 | 104224 | 136059
    7 | 30: 14: 10 | 03: 24: 49 | 136060 | 151408
    8 | 33: 38: 59 | 08: 26: 40 | 151409 | 189398
    AccurateRip Summary (DiscID: 000c3230-00518162-6209dd08)
    Track 01 : OK (v2, confidence 1/1)
    Track 02 : OK (v2, confidence 1/1)
    Track 03 : OK (v2, confidence 1/1)
    Track 04 : OK (v2, confidence 1/1)
    Track 05 : OK (v2, confidence 1/1)
    Track 06 : OK (v2, confidence 1/1)
    Track 07 : OK (v2, confidence 1/1)
    Track 08 : OK (v2, confidence 1/1)
    -All tracks accurately ripped.
    All Tracks
    Album gain : -6.39 dB
    Peak : 0.999969
    Statistics
    Read error : 0
    Jitter error (maybe fixed) : 0
    Retry sector count : 0
    Damaged sector count : 0
    Track 01
    Filename : /Users/jhmac/Music/XLD rips/Various Artists - Musik (Vanity Records) (2019) FLAC/01 Inka Sanka.flac
    Pre-gap length : 00: 02: 00
    Track gain : -4.22 dB
    Peak : 0.999969
    CRC32 hash (test run) : 08F18A62
    CRC32 hash : 08F18A62
    CRC32 hash (skip zero) : CE81CE2B
    AccurateRip v1 signature : 75D86127
    AccurateRip v2 signature : 98634986
    -Accurately ripped (v2, confidence 1/1)
    Statistics
    Read error : 0
    Jitter error (maybe fixed) : 0
    Retry sector count : 0
    Damaged sector count : 0
    Track 02
    Filename : /Users/jhmac/Music/XLD rips/Various Artists - Musik (Vanity Records) (2019) FLAC/02 Inka Sanka.flac
    Track gain : -5.08 dB
    Peak : 0.999969
    CRC32 hash (test run) : 47FC5550
    CRC32 hash : 47FC5550
    CRC32 hash (skip zero) : 9B267289
    AccurateRip v1 signature : D7F23D36
    AccurateRip v2 signature : 49198823
    -Accurately ripped (v2, confidence 1/1)
    Statistics
    Read error : 0
    Jitter error (maybe fixed) : 0
    Retry sector count : 0
    Damaged sector count : 0
    Track 03
    Filename : /Users/jhmac/Music/XLD rips/Various Artists - Musik (Vanity Records) (2019) FLAC/03 Green Brain.flac
    Track gain : -6.17 dB
    Peak : 0.999969
    CRC32 hash (test run) : A4513DC2
    CRC32 hash : A4513DC2
    CRC32 hash (skip zero) : 07397F0C
    AccurateRip v1 signature : 652A81C3
    AccurateRip v2 signature : 400684E7
    -Accurately ripped (v2, confidence 1/1)
    Statistics
    Read error : 0
    Jitter error (maybe fixed) : 0
    Retry sector count : 0
    Damaged sector count : 0
    Track 04
    Filename : /Users/jhmac/Music/XLD rips/Various Artists - Musik (Vanity Records) (2019) FLAC/04 Dolby Nr On.flac
    Track gain : -7.84 dB
    Peak : 0.999969
    CRC32 hash (test run) : 79A97AE1
    CRC32 hash : 79A97AE1
    CRC32 hash (skip zero) : 7132BBE6
    AccurateRip v1 signature : 0DECDC4C
    AccurateRip v2 signature : EC2BC49F
    -Accurately ripped (v2, confidence 1/1)
    Statistics
    Read error : 0
    Jitter error (maybe fixed) : 0
    Retry sector count : 0
    Damaged sector count : 0
    Track 05
    Filename : /Users/jhmac/Music/XLD rips/Various Artists - Musik (Vanity Records) (2019) FLAC/05 1976.flac
    Track gain : -6.41 dB
    Peak : 0.999969
    CRC32 hash (test run) : B52CD4F3
    CRC32 hash : B52CD4F3
    CRC32 hash (skip zero) : 8A390687
    AccurateRip v1 signature : 43FC0A9E
    AccurateRip v2 signature : AF11BB54
    -Accurately ripped (v2, confidence 1/1)
    Statistics
    Read error : 0
    Jitter error (maybe fixed) : 0
    Retry sector count : 0
    Damaged sector count : 0
    Track 06
    Filename : /Users/jhmac/Music/XLD rips/Various Artists - Musik (Vanity Records) (2019) FLAC/06 Bunders Nachrichten Dienst.flac
    Track gain : -8.85 dB
    Peak : 0.999969
    CRC32 hash (test run) : D19A65E6
    CRC32 hash : D19A65E6
    CRC32 hash (skip zero) : C39CDCAF
    AccurateRip v1 signature : 74964EB0
    AccurateRip v2 signature : F901A444
    -Accurately ripped (v2, confidence 1/1)
    Statistics
    Read error : 0
    Jitter error (maybe fixed) : 0
    Retry sector count : 0
    Damaged sector count : 0
    Track 07
    Filename : /Users/jhmac/Music/XLD rips/Various Artists - Musik (Vanity Records) (2019) FLAC/07 Invivo.flac
    Track gain : -4.85 dB
    Peak : 0.999969
    CRC32 hash (test run) : 5CDDE102
    CRC32 hash : 5CDDE102
    CRC32 hash (skip zero) : 70852D8C
    AccurateRip v1 signature : 5755EFAA
    AccurateRip v2 signature : 144E6010
    -Accurately ripped (v2, confidence 1/1)
    Statistics
    Read error : 0
    Jitter error (maybe fixed) : 0
    Retry sector count : 0
    Damaged sector count : 0
    Track 08
    Filename : /Users/jhmac/Music/XLD rips/Various Artists - Musik (Vanity Records) (2019) FLAC/08 Artificial One.flac
    Track gain : -4.20 dB
    Peak : 0.999969
    CRC32 hash (test run) : C8B97E7B
    CRC32 hash : C8B97E7B
    CRC32 hash (skip zero) : 8612265D
    AccurateRip v1 signature : B29F8843
    AccurateRip v2 signature : F40988F6
    -Accurately ripped (v2, confidence 1/1)
    Statistics
    Read error : 0
    Jitter error (maybe fixed) : 0
    Retry sector count : 0
    Damaged sector count : 0
    No errors occurred
    End of status report
    -----BEGIN XLD SIGNATURE-----
    XfItlPHho6.BF8AYVieJ7z6JIsSA.wSoSyIrA6ZvliJk9nkNb40sOmZHLLblkLWXIgs9ztAqrJ5EmNFJojw65XuvcRNBf6EWn2S34R8
    -----END XLD SIGNATURE-----
    Время раздачи: 12/7


    VA - Musik (Vanity Records) (1981/2019) Kyou Records | Reissue, Remastered [FLAC|Lossless|tracks+.cue] <Experimental, Abstract, Minimal>
    Рейтинг →
     (голосов: 1, оценка 5/5, голосовать можно 1 раз )

    Другие торренты по теме:

  • VA - Kunst Musik V2 (2018) Kunst Musik [FLAC|Lossless|WEB-DL|tracks] <Dub Techno>
  • Joga Dass - Die Erzengel (2007) [WavPack|image+.cue]<Meditative, Chakraphon-Musik> скачать через торрент бесплатно
  • VA - Wir Lieben Sommerabende: Feinste Lounge Musik Selektion (2015) [MP3|320 кб / с] <Downtempo, Chillout, Lounge> скачать через торрент бесплатно
  • Christian Zimmermann - Lauten- und Gitarren-Musik aus dem Barock (2002) [FLAC|Lossless|image + .cue] <Classical, Baroque>
  • VA - Garten Lounge Musik (2016) [MP3|320 кб / с] <House, Deep House>
  • VA - Zuhause Ist Es Am Schonsten: Chillout Musik (2016) [MP3|320 Kbps] <Downtempo, Chillout, Lounge>
  • VA - Running Beats 11 - Musik Zum Laufen (Inkl 5 KM & 10 KM Mix) (2016) [MP3|250~294 Kbps] <House, Progressive>
  • Dave Brubeck - S Wonderful (2003) Tyrolis Musik [FLAC|Lossless|tracks + .cue] <Cool, Piano Jazz>


    • Комментарии (0):

      Информация

      Информация

        Посетители, находящиеся в группе Гости, не могут оставлять комментарии в данной новости.

        ↓ Меню




        ↓ Опрос

        Вы добавили сайт в закладки?
        Да
        Нет


        Популярное

        ДиДюЛя - 17 альбомов (2000-2017) дискография [MP3|320 кб / с] <Фолк,Фламенко,Фьюжн>

        (скачиваний: 157)
        Чиж & Co - Коллекция легендарных песен (2014) [MP3|320 кб / с]<Rock> скачать через торрент бесплатно

        (скачиваний: 140)
        Стас Намин и Группа ЦВЕТЫ - 40 лет (Полная версия концерта) - Crocus Hall (Live) (2010) HDTVRip [AVC / H.264, 1080p]

        (скачиваний: 102)
        VA - Большая коллекция клипов в авто (2DIN) (2000-2016) SATRip

        (скачиваний: 100)
        The Beatles - Collection of video clips (1964-1983) HDTV [720p] скачать через торрент бесплатно

        (скачиваний: 54)
        Дима Билан - 12 альбомов, 4 сингла (2003 - 2017) [MP3|320 Kbps] <Pop>

        (скачиваний: 49)
        Александр Марцинкевич и группа Кабриолет - Лучших 50 песен (2016) Compilation [FLAC|Lossless|WEB-DL|tracks] <Chanson>

        (скачиваний: 43)
        Голубой огонек - "В первый час..." (1965) SATRip [H.264] [colourization] скачать через торрент бесплатно

        (скачиваний: 41)
        Демис Руссос - Лучшее (2010) 4CD [MP3|320 кб / с]<Pop>

        (скачиваний: 36)
        Канцлер Ги - 17 альбомов (2002-2017) [MP3|97-320 kbps]<Нео-Фолк / блюз>

        (скачиваний: 36)