.
Авторизация | Регистрация
bitok.xyz
» » TCH - Sinflower (1997) Iridium [FLAC|Lossless|tracks+.cue] <Experimental, IDM, Ambient> торрент скачать бесплатно


    TCH - Sinflower (1997) Iridium [FLAC|Lossless|tracks+.cue] <Experimental, IDM, Ambient> торрент скачать бесплатно

    Дата: 22-12-2019, 05:00 | .torrent скачали: 0

    TCH - Sinflower (1997) Iridium [FLAC|Lossless|tracks+.cue] &ltExperimental, IDM, Ambient>Жанр: Experimental, IDM, Ambient
    Издание: Iridium - Ir 193.5
    Продолжительность: 00: 54: 08
    Кодек: FLAC
    Битрейт: Lossless
    Тип рипа: tracks+.cue

    Треклист

    01. Dog Embassy Experimental Passenger Part I (04: 31)
    02. Substantia Nigra (01: 53)
    03. (P/G)Nunu (06: 20)
    04. Redcast (03: 19)
    05. Last Known Resting Place (06: 52)
    06. Semipalatinsk Experimental Passenger Part II (02: 24)
    07. Spirit War (05: 56)
    08. Next...? (04: 57)
    09. Chemycal (09: 41)
    10. A Plague Diary (08: 15)

    Exact Audio Copy V1.0 beta 3 from 29. August 2011
    EAC extraction logfile from 4. October 2011, 0: 44
    This Crepuscular Hour/Sinflower
    Used drive : TEAC CD-W540E Adapter: 0 ID: 1
    Read mode : Secure
    Utilize accurate stream : Yes
    Defeat audio cache : Yes
    Make use of C2 pointers : No
    Read offset correction : 686
    Overread into Lead-In and Lead-Out : No
    Fill up missing offset samples with silence : Yes
    Delete leading and trailing silent blocks : No
    Null samples used in CRC calculations : Yes
    Used interface : Native Win32 interface for Win NT 2000
    Gap handling : Appended to previous track
    Used output format : Internal WAV Routines
    Sample format : 44.100 Hz; 16 Bit; Stereo
    TOC of the extracted CD
    Track | Start | Length | Start sector | End sector
    ---------------------------------------------------------
    1 | 0: 00.00 | 4: 30.54 | 0 | 20303
    2 | 4: 30.54 | 1: 52.48 | 20304 | 28751
    3 | 6: 23.27 | 6: 20.00 | 28752 | 57251
    4 | 12: 43.27 | 3: 18.44 | 57252 | 72145
    5 | 16: 01.71 | 6: 51.53 | 72146 | 103023
    6 | 22: 53.49 | 2: 24.28 | 103024 | 113851
    7 | 25: 18.02 | 5: 56.17 | 113852 | 140568
    8 | 31: 14.19 | 4: 57.21 | 140569 | 162864
    9 | 36: 11.40 | 9: 40.57 | 162865 | 206421
    10 | 45: 52.22 | 8: 14.69 | 206422 | 243540
    Track 1
    Filename H: SharetmpTCH 1997 Sinflower1. Dog Embassy (Experimental Passenger Part I).wav
    Pre-gap length 0: 00: 02.00
    Peak level 98.8 %
    Extraction speed 3.0 X
    Track quality 100.0 %
    Test CRC D0AA2C51
    Copy CRC D0AA2C51
    Accurately ripped (confidence 1) 3A63F80D (AR v2)
    Copy OK
    Track 2
    Filename H: SharetmpTCH 1997 Sinflower2. Substantia Nigra.wav
    Peak level 92.8 %
    Extraction speed 2.8 X
    Track quality 100.0 %
    Test CRC 33B08584
    Copy CRC 33B08584
    Accurately ripped (confidence 1) EAD6C92E (AR v2)
    Copy OK
    Track 3
    Filename H: SharetmpTCH 1997 Sinflower3. (P!G)Nunu.wav
    Peak level 98.8 %
    Extraction speed 3.7 X
    Track quality 100.0 %
    Test CRC 2EEAC8A7
    Copy CRC 2EEAC8A7
    Accurately ripped (confidence 1) 29FAFF3B (AR v2)
    Copy OK
    Track 4
    Filename H: SharetmpTCH 1997 Sinflower4. Redcast.wav
    Peak level 98.8 %
    Extraction speed 3.7 X
    Track quality 100.0 %
    Test CRC 9C779F3D
    Copy CRC 9C779F3D
    Accurately ripped (confidence 1) 2DCDBFEA (AR v2)
    Copy OK
    Track 5
    Filename H: SharetmpTCH 1997 Sinflower5. Last Known Resting Place.wav
    Peak level 98.8 %
    Extraction speed 4.3 X
    Track quality 100.0 %
    Test CRC 9174FC4C
    Copy CRC 9174FC4C
    Accurately ripped (confidence 1) 7BB4376D (AR v2)
    Copy OK
    Track 6
    Filename H: SharetmpTCH 1997 Sinflower6. Semipalatinsk (Experimental Passenger Part II).wav
    Peak level 98.8 %
    Extraction speed 4.1 X
    Track quality 100.0 %
    Test CRC 12673994
    Copy CRC 12673994
    Accurately ripped (confidence 1) A3D09FA2 (AR v2)
    Copy OK
    Track 7
    Filename H: SharetmpTCH 1997 Sinflower7. Spirit War.wav
    Peak level 98.8 %
    Extraction speed 3.6 X
    Track quality 99.9 %
    Test CRC 6A134218
    Copy CRC 6A134218
    Accurately ripped (confidence 1) 5030643A (AR v2)
    Copy OK
    Track 8
    Filename H: SharetmpTCH 1997 Sinflower8. Next....wav
    Peak level 98.8 %
    Extraction speed 5.0 X
    Track quality 100.0 %
    Test CRC 6536196C
    Copy CRC 6536196C
    Accurately ripped (confidence 1) 5029DD2C (AR v2)
    Copy OK
    Track 9
    Filename H: SharetmpTCH 1997 Sinflower9. Chemycal.wav
    Peak level 98.8 %
    Extraction speed 5.7 X
    Track quality 100.0 %
    Test CRC DF9EDCA6
    Copy CRC DF9EDCA6
    Accurately ripped (confidence 1) 697BF3C2 (AR v2)
    Copy OK
    Track 10
    Filename H: SharetmpTCH 1997 Sinflower10. A Plague Diary.wav
    Peak level 98.8 %
    Extraction speed 6.0 X
    Track quality 100.0 %
    Test CRC E8C5A169
    Copy CRC E8C5A169
    Accurately ripped (confidence 1) 17C69D25 (AR v2)
    Copy OK
    All tracks accurately ripped
    No errors occurred
    End of status report
    ---- CUETools DB Plugin V2.1.3
    CTDB TOCID: UkcNcamJL4oJjEDbEV_4mQdX.l0- disk not present in database, Submit result: UkcNcamJL4oJjEDbEV_4mQdX.l0- has been uploaded
    ==== Log checksum 4082151B16176D57EE9DBD8D5C1461F64A48CC14F146DA94EF52F0FBFB215A31 ====

    REM GENRE Experimental
    REM DISCID 8E0CAF0A
    REM COMMENT ExactAudioCopy v1.0b3
    PERFORMER This Crepuscular Hour
    TITLE Sinflower
    FILE 01. Dog Embassy (Experimental Passenger Part I).wav WAVE
    TRACK 01 AUDIO
    TITLE Dog Embassy (Experimental Passenger Part I)
    PERFORMER This Crepuscular Hour
    INDEX 01 00: 00: 00
    FILE 02. Substantia Nigra.wav WAVE
    TRACK 02 AUDIO
    TITLE Substantia Nigra
    PERFORMER This Crepuscular Hour
    INDEX 01 00: 00: 00
    FILE 03. (P!G)Nunu.wav WAVE
    TRACK 03 AUDIO
    TITLE (P|G)Nunu
    PERFORMER This Crepuscular Hour
    INDEX 01 00: 00: 00
    FILE 04. Redcast.wav WAVE
    TRACK 04 AUDIO
    TITLE Redcast
    PERFORMER This Crepuscular Hour
    INDEX 01 00: 00: 00
    FILE 05. Last Known Resting Place.wav WAVE
    TRACK 05 AUDIO
    TITLE Last Known Resting Place
    PERFORMER This Crepuscular Hour
    INDEX 01 00: 00: 00
    FILE 06. Semipalatinsk (Experimental Passenger Part II).wav WAVE
    TRACK 06 AUDIO
    TITLE Semipalatinsk (Experimental Passenger Part II)
    PERFORMER This Crepuscular Hour
    INDEX 01 00: 00: 00
    FILE 07. Spirit War.wav WAVE
    TRACK 07 AUDIO
    TITLE Spirit War
    PERFORMER This Crepuscular Hour
    INDEX 01 00: 00: 00
    FILE 08. Next....wav WAVE
    TRACK 08 AUDIO
    TITLE Next...?
    PERFORMER This Crepuscular Hour
    INDEX 01 00: 00: 00
    FILE 09. Chemycal.wav WAVE
    TRACK 09 AUDIO
    TITLE Chemycal
    PERFORMER This Crepuscular Hour
    INDEX 01 00: 00: 00
    FILE 10. A Plague Diary.wav WAVE
    TRACK 10 AUDIO
    TITLE A Plague Diary
    PERFORMER This Crepuscular Hour
    INDEX 01 00: 00: 00


    TCH - Sinflower (1997) Iridium [FLAC|Lossless|tracks+.cue] <Experimental, IDM, Ambient>
    Рейтинг →
     (голосов: 1, оценка 5/5, голосовать можно 1 раз )

    Другие торренты по теме:



      Комментарии (0):

      Информация

      Информация

        Посетители, находящиеся в группе Гости, не могут оставлять комментарии в данной новости.

        ↓ Меню




        ↓ Опрос

        Вы добавили сайт в закладки?
        Да
        Нет


        Популярное

        ДиДюЛя - 17 альбомов (2000-2017) дискография [MP3|320 кб / с] <Фолк,Фламенко,Фьюжн>

        (скачиваний: 157)
        Чиж & Co - Коллекция легендарных песен (2014) [MP3|320 кб / с]<Rock> скачать через торрент бесплатно

        (скачиваний: 140)
        Стас Намин и Группа ЦВЕТЫ - 40 лет (Полная версия концерта) - Crocus Hall (Live) (2010) HDTVRip [AVC / H.264, 1080p]

        (скачиваний: 102)
        VA - Большая коллекция клипов в авто (2DIN) (2000-2016) SATRip

        (скачиваний: 100)
        The Beatles - Collection of video clips (1964-1983) HDTV [720p] скачать через торрент бесплатно

        (скачиваний: 54)
        Дима Билан - 12 альбомов, 4 сингла (2003 - 2017) [MP3|320 Kbps] <Pop>

        (скачиваний: 49)
        Александр Марцинкевич и группа Кабриолет - Лучших 50 песен (2016) Compilation [FLAC|Lossless|WEB-DL|tracks] <Chanson>

        (скачиваний: 43)
        Голубой огонек - "В первый час..." (1965) SATRip [H.264] [colourization] скачать через торрент бесплатно

        (скачиваний: 41)
        Демис Руссос - Лучшее (2010) 4CD [MP3|320 кб / с]<Pop>

        (скачиваний: 36)
        Канцлер Ги - 17 альбомов (2002-2017) [MP3|97-320 kbps]<Нео-Фолк / блюз>

        (скачиваний: 36)