.
Авторизация | Регистрация
bitok.xyz
» » The Dark Element - Songs The Night Sings (2019) Japanese Edition [WavPack|Lossless|image + .cue] <Heavy Metal, Power Metal> торрент скачать бесплатно


    The Dark Element - Songs The Night Sings (2019) Japanese Edition [WavPack|Lossless|image + .cue] <Heavy Metal, Power Metal> торрент скачать бесплатно

    Дата: 22-12-2019, 05:00 | .torrent скачали: 0

    The Dark Element - Songs The Night Sings (2019) Japanese Edition [WavPack|Lossless|image + .cue] &ltHeavy Metal, Power Metal>Жанр: Heavy Metal, Power Metal
    Издание: King Record Co., Ltd - KICP 4006
    Особенность релиза: Japanese Edition
    Источник (релизер): jocker
    Продолжительность: 01: 00: 01
    Кодек: WavPack
    Битрейт: Lossless
    Тип рипа: image + .cue
    Наличие сканов: Да, полные


    Треклист

    01. Not Your Monster (6: 24)
    02. Songs The Night Sings (5: 10)
    03. When It All Comes Down (5: 59)
    04. Silence Between The Words (4: 35)
    05. Pills On My Pillow (4: 31)
    06. To Whatever End (5: 16)
    07. The Pallbearer Walks Alone (5: 40)
    08. Get Out Of My Head (4: 44)
    09. If I Had A Heart (4: 47)
    10. You Will Learn (5: 56)
    11. I Have To Go (3: 02)
    Bonus Track:
    12. You Will Learn (Reprise) (3: 59) Код: выделить все
    Exact Audio Copy V1.3 from 2. September 2016
    EAC extraction logfile from 6. December 2019, 13:27
    The Dark Element/Songs The Night Sings
    Used drive : HL-DT-STDVDRAM GH24NSD1 Adapter: 1 ID: 0
    Read mode : Secure
    Utilize accurate stream : Yes
    Defeat audio cache : Yes
    Make use of C2 pointers : No
    Read offset correction : 6
    Overread into Lead-In and Lead-Out : No
    Fill up missing offset samples with silence : Yes
    Delete leading and trailing silent blocks : No
    Null samples used in CRC calculations : Yes
    Used interface : Native Win32 interface for Win NT 2000
    Used output format : User Defined Encoder
    Selected bitrate : 896 kBit/s
    Quality : High
    Add ID3 tag : No
    Command line compressor : C:Program Files (x86)Exact Audio Copywavpack.exe
    Additional command line options : -hm %source% %dest%
    TOC of the extracted CD
    Track | Start | Length | Start sector | End sector
    ---------------------------------------------------------
    1 | 0:00.00 | 6:24.31 | 0 | 28830
    2 | 6:24.31 | 5:09.62 | 28831 | 52067
    3 | 11:34.18 | 5:58.48 | 52068 | 78965
    4 | 17:32.66 | 4:34.39 | 78966 | 99554
    5 | 22:07.30 | 4:30.66 | 99555 | 119870
    6 | 26:38.21 | 5:15.46 | 119871 | 143541
    7 | 31:53.67 | 5:39.71 | 143542 | 169037
    8 | 37:33.63 | 4:43.42 | 169038 | 190304
    9 | 42:17.30 | 4:46.64 | 190305 | 211818
    10 | 47:04.19 | 5:55.55 | 211819 | 238498
    11 | 52:59.74 | 3:02.10 | 238499 | 252158
    12 | 56:02.09 | 3:59.20 | 252159 | 270103
    Range status and errors
    Selected range
    Filename E:NetLab Club ReleasesThe Dark Element - 2019 - Songs The Night Sings (Japanese Edition)The Dark Element - Songs The Night Sings.wav
    Peak level 88.8 %
    Extraction speed 1.3 X
    Range quality 100.0 %
    Test CRC 9168A40B
    Copy CRC 9168A40B
    Copy OK
    No errors occurred
    AccurateRip summary
    Track 1 not present in database
    Track 2 not present in database
    Track 3 not present in database
    Track 4 not present in database
    Track 5 not present in database
    Track 6 not present in database
    Track 7 not present in database
    Track 8 not present in database
    Track 9 not present in database
    Track 10 not present in database
    Track 11 not present in database
    Track 12 not present in database
    None of the tracks are present in the AccurateRip database
    End of status report
    ---- CUETools DB Plugin V2.1.6
    [CTDB TOCID: 2IML1WE3ZfPqY3PzYf.30Uj2DB8-] found
    Submit result: 2IML1WE3ZfPqY3PzYf.30Uj2DB8- has been confirmed
    Track | CTDB Status
    1 | (8/8) Accurately ripped
    2 | (8/8) Accurately ripped
    3 | (8/8) Accurately ripped
    4 | (8/8) Accurately ripped
    5 | (8/8) Accurately ripped
    6 | (8/8) Accurately ripped
    7 | (8/8) Accurately ripped
    8 | (8/8) Accurately ripped
    9 | (8/8) Accurately ripped
    10 | (8/8) Accurately ripped
    11 | (8/8) Accurately ripped
    12 | (8/8) Accurately ripped
    ==== Log checksum 3E7D4744CFBEF5F89FB803642A95F992D7B904F4F032E9EF10FDE89CB664B684 ====


    The Dark Element - Songs The Night Sings (2019) Japanese Edition [WavPack|Lossless|image + .cue] <Heavy Metal, Power Metal>
    Рейтинг →
     (голосов: 1, оценка 4/5, голосовать можно 1 раз )

    Другие торренты по теме:

  • The Dark Element - The Dark Element (2017) Japanese Edition [FLAC|Lossless|image + .cue] <Heavy Metal, Power Metal>
  • The Dark Element - Songs the Night Sings (2019) [FLAC|Lossless|WEB-DL|tracks] <Symphonic Power Metal>
  • The Dark Element - Songs the Night Sings (2019) [MP3|320 kbps] <Symphonic Metal>
  • Проекты - VideoHive - 3d Element Dark Planet [AEP]


    • Комментарии (0):

      Информация

      Информация

        Посетители, находящиеся в группе Гости, не могут оставлять комментарии в данной новости.

        ↓ Меню




        ↓ Опрос

        Вы добавили сайт в закладки?
        Да
        Нет


        Популярное

        ДиДюЛя - 17 альбомов (2000-2017) дискография [MP3|320 кб / с] <Фолк,Фламенко,Фьюжн>

        (скачиваний: 157)
        Чиж & Co - Коллекция легендарных песен (2014) [MP3|320 кб / с]<Rock> скачать через торрент бесплатно

        (скачиваний: 140)
        Стас Намин и Группа ЦВЕТЫ - 40 лет (Полная версия концерта) - Crocus Hall (Live) (2010) HDTVRip [AVC / H.264, 1080p]

        (скачиваний: 102)
        VA - Большая коллекция клипов в авто (2DIN) (2000-2016) SATRip

        (скачиваний: 100)
        The Beatles - Collection of video clips (1964-1983) HDTV [720p] скачать через торрент бесплатно

        (скачиваний: 54)
        Дима Билан - 12 альбомов, 4 сингла (2003 - 2017) [MP3|320 Kbps] <Pop>

        (скачиваний: 49)
        Александр Марцинкевич и группа Кабриолет - Лучших 50 песен (2016) Compilation [FLAC|Lossless|WEB-DL|tracks] <Chanson>

        (скачиваний: 43)
        Голубой огонек - "В первый час..." (1965) SATRip [H.264] [colourization] скачать через торрент бесплатно

        (скачиваний: 41)
        Демис Руссос - Лучшее (2010) 4CD [MP3|320 кб / с]<Pop>

        (скачиваний: 36)
        Канцлер Ги - 17 альбомов (2002-2017) [MP3|97-320 kbps]<Нео-Фолк / блюз>

        (скачиваний: 36)