.
Авторизация | Регистрация
bitok.xyz
» » The Dark Element - The Dark Element (2017) Japanese Edition [FLAC|Lossless|image + .cue] <Heavy Metal, Power Metal> торрент скачать бесплатно


    The Dark Element - The Dark Element (2017) Japanese Edition [FLAC|Lossless|image + .cue] <Heavy Metal, Power Metal> торрент скачать бесплатно

    Дата: 22-12-2019, 05:00 | .torrent скачали: 0

    The Dark Element - The Dark Element (2017) Japanese Edition [FLAC|Lossless|image + .cue] &ltHeavy Metal, Power Metal>Жанр: Heavy Metal, Power Metal
    Издание: King Record Co., Ltd - KIZC 423/4
    Особенность релиза: Japanese Edition, Deluxe Edition
    Источник (релизер): Ilijan (MMT)
    Продолжительность: 00: 57: 07
    Кодек: FLAC
    Битрейт: Lossless
    Тип рипа: image + .cue
    Наличие сканов: Да, полные


    Треклист

    01. The Dark Element (4: 27)
    02. My Sweet Mystery (5: 00)
    03. The Last Good Day (4: 14)
    04. Here\'s To You (4: 15)
    05. Someone You Used To Know (4: 24)
    06. Dead To Me (5: 29)
    07. Halo (4: 26)
    08. I Cannot Raise The Dead (4: 26)
    09. The Ghost And The Reaper (5: 22)
    10. Heaven Of Your Heart (4: 47)
    11. Only One Who Knows Me (5: 11)
    Bonus Track:
    12. Dead To Me (Almost Acoustic Version (5: 07) Код: выделить все
    Exact Audio Copy V1.3 from 2. September 2016
    EAC extraction logfile from 16. November 2017, 13:50
    The Dark Element/The Dark Element (Japan)
    Used drive : ATAPI iHAS122 W Adapter: 2 ID: 0
    Read mode : Secure
    Utilize accurate stream : Yes
    Defeat audio cache : Yes
    Make use of C2 pointers : No
    Read offset correction : 48
    Overread into Lead-In and Lead-Out : No
    Fill up missing offset samples with silence : Yes
    Delete leading and trailing silent blocks : No
    Null samples used in CRC calculations : Yes
    Used interface : Installed external ASPI interface
    Used output format : User Defined Encoder
    Selected bitrate : 1024 kBit/s
    Quality : High
    Add ID3 tag : No
    Command line compressor : C:Program FilesFLACflac.exe
    Additional command line options : -V -8 -T Date=%year% -T Genre=%genre% -TCOMMENT=Ripped by Ilijan [MeTaLMaDNeSS.TeaM] -8 -V %source%
    TOC of the extracted CD
    Track | Start | Length | Start sector | End sector
    ---------------------------------------------------------
    1 | 0:00.00 | 4:26.42 | 0 | 19991
    2 | 4:26.42 | 4:59.56 | 19992 | 42472
    3 | 9:26.23 | 4:13.46 | 42473 | 61493
    4 | 13:39.69 | 4:15.08 | 61494 | 80626
    5 | 17:55.02 | 4:24.30 | 80627 | 100456
    6 | 22:19.32 | 5:28.51 | 100457 | 125107
    7 | 27:48.08 | 4:25.57 | 125108 | 145039
    8 | 32:13.65 | 4:25.45 | 145040 | 164959
    9 | 36:39.35 | 5:21.63 | 164960 | 189097
    10 | 42:01.23 | 4:46.56 | 189098 | 210603
    11 | 46:48.04 | 5:11.34 | 210604 | 233962
    12 | 51:59.38 | 5:07.23 | 233963 | 257010
    Range status and errors
    Selected range
    Filename D:Vknish + Devastator = Swolo4 (Download, Upload On , DIE!!!)The Dark Element - The Dark Element (Japan).wav
    Peak level 98.7 %
    Extraction speed 3.9 X
    Range quality 100.0 %
    Test CRC C8E0A14A
    Copy CRC C8E0A14A
    Copy OK
    No errors occurred
    AccurateRip summary
    Track 1 not present in database
    Track 2 not present in database
    Track 3 not present in database
    Track 4 not present in database
    Track 5 not present in database
    Track 6 not present in database
    Track 7 not present in database
    Track 8 not present in database
    Track 9 not present in database
    Track 10 not present in database
    Track 11 not present in database
    Track 12 not present in database
    None of the tracks are present in the AccurateRip database
    End of status report
    ---- CUETools DB Plugin V2.1.6
    [CTDB TOCID: wU_Hji0KthoYihIHb1sAyx7Z5X4-] found
    Submit result: wU_Hji0KthoYihIHb1sAyx7Z5X4- has been confirmed
    Track | CTDB Status
    1 | (3/3) Accurately ripped
    2 | (3/3) Accurately ripped
    3 | (3/3) Accurately ripped
    4 | (3/3) Accurately ripped
    5 | (3/3) Accurately ripped
    6 | (3/3) Accurately ripped
    7 | (3/3) Accurately ripped
    8 | (3/3) Accurately ripped
    9 | (3/3) Accurately ripped
    10 | (3/3) Accurately ripped
    11 | (3/3) Accurately ripped
    12 | (3/3) Accurately ripped
    ==== Log checksum 08EB9CFA1E0CC47856DD352433FC01C8729EAD622ED30514E956815A00552C1D ====


    The Dark Element - The Dark Element (2017) Japanese Edition [FLAC|Lossless|image + .cue] <Heavy Metal, Power Metal>
    Рейтинг →
     (голосов: 1, оценка 4/5, голосовать можно 1 раз )

    Другие торренты по теме:

  • The Dark Element - Songs the Night Sings (2019) [FLAC|Lossless|WEB-DL|tracks] <Symphonic Power Metal>
  • The Dark Element - Songs the Night Sings (2019) [MP3|320 kbps] <Symphonic Metal>
  • The Dark Element - Songs The Night Sings (2019) Japanese Edition [WavPack|Lossless|image + .cue] <Heavy Metal, Power Metal>
  • Проекты - VideoHive - 3d Element Dark Planet [AEP]


    • Комментарии (0):

      Информация

      Информация

        Посетители, находящиеся в группе Гости, не могут оставлять комментарии в данной новости.

        ↓ Меню




        ↓ Опрос

        Вы добавили сайт в закладки?
        Да
        Нет


        Популярное

        ДиДюЛя - 17 альбомов (2000-2017) дискография [MP3|320 кб / с] <Фолк,Фламенко,Фьюжн>

        (скачиваний: 154)
        Чиж & Co - Коллекция легендарных песен (2014) [MP3|320 кб / с]<Rock> скачать через торрент бесплатно

        (скачиваний: 140)
        Стас Намин и Группа ЦВЕТЫ - 40 лет (Полная версия концерта) - Crocus Hall (Live) (2010) HDTVRip [AVC / H.264, 1080p]

        (скачиваний: 102)
        VA - Большая коллекция клипов в авто (2DIN) (2000-2016) SATRip

        (скачиваний: 100)
        The Beatles - Collection of video clips (1964-1983) HDTV [720p] скачать через торрент бесплатно

        (скачиваний: 52)
        Дима Билан - 12 альбомов, 4 сингла (2003 - 2017) [MP3|320 Kbps] <Pop>

        (скачиваний: 47)
        Александр Марцинкевич и группа Кабриолет - Лучших 50 песен (2016) Compilation [FLAC|Lossless|WEB-DL|tracks] <Chanson>

        (скачиваний: 43)
        Голубой огонек - "В первый час..." (1965) SATRip [H.264] [colourization] скачать через торрент бесплатно

        (скачиваний: 41)
        Канцлер Ги - 17 альбомов (2002-2017) [MP3|97-320 kbps]<Нео-Фолк / блюз>

        (скачиваний: 36)
        Демис Руссос - Лучшее (2010) 4CD [MP3|320 кб / с]<Pop>

        (скачиваний: 36)