ВАЖНО! Сайт скоро заблокируют! Подписывайся на наш канал в Telegram https://t.me/torrentok и получи доступ к торрентам без ограничений!
.
Авторизация | Регистрация
bitok.xyz
Торрент скачать бесплатно Музыка торрент скачать Regis Philbin - When Youre Smiling (2004) Hollywood Records [FLAC|Lossless|tracks + .cue] <Vocal Jazz> торрент скачать бесплатно


    Regis Philbin - When Youre Smiling (2004) Hollywood Records [FLAC|Lossless|tracks + .cue] <Vocal Jazz> торрент скачать бесплатно

    Дата: 22-12-2019, 05:00 | .torrent скачали: 3

    Regis Philbin - When Youre Smiling (2004) Hollywood Records [FLAC|Lossless|tracks + .cue] &ltVocal Jazz>Жанр: Vocal Jazz
    Издание: Hollywood Records - 2061-62476-2
    Продолжительность: 00: 37: 10
    Кодек: FLAC (tracks+.cue)
    Битрейт: Lossless
    Источник (релизер): redacted
    Страна-производитель диска: USA
    Наличие сканов в содержимом раздачи: нет

    Треклист

    01. You Make Me Feel So Young 3: 24
    02. Pennies from Heaven 3: 18
    03. It Had to Be You 3: 08
    04. When You\'re Smiling 3: 14
    05. I Can\'t Give You Anything But Love 2: 44
    06. They Can\'t Take That Away from Me (with Joy Philbin) 2: 43
    07. The Very Thought of You 3: 56
    08. Cheek to Cheek 3: 55
    09. What\'ll I Do 3: 07
    10. You\'re Nobody \'Til Somebody Loves You 2: 39
    11. Exactly Like You 2: 24
    12. Too Ra Loo Ra Loo Ral (with Ronan Tynan) 2: 37
    Exact Audio Copy V1.0 beta 3 from 29. August 2011
    EAC extraction logfile from 18. November 2012, 20: 35
    Regis Philbin/When You\'re Smiling
    Used drive : ASUS DRW-24B1ST a Adapter: 3 ID: 0
    Read mode : Secure
    Utilize accurate stream : Yes
    Defeat audio cache : Yes
    Make use of C2 pointers : No
    Read offset correction : 6
    Overread into Lead-In and Lead-Out : No
    Fill up missing offset samples with silence : Yes
    Delete leading and trailing silent blocks : No
    Null samples used in CRC calculations : Yes
    Used interface : Native Win32 interface for Win NT 2000
    Gap handling : Appended to previous track
    Used output format : User Defined Encoder
    Selected bitrate : 1024 kBit/s
    Quality : High
    Add ID3 tag : No
    Command line compressor : C: Program Files (x86)FLACflac.exe
    Additional command line options : -8 -V -T ARTIST=%artist% -T TITLE=%title% -T ALBUM=%albumtitle% -T DATE=%year% -T TRACKNUMBER=%tracknr% -T GENRE=%genre% -T PERFORMER=%albuminterpret% -T COMPOSER=%composer% %haslyrics%--tag-from-file=LYRICS=%lyricsfile%%haslyrics% -T ALBUMARTIST=%albumartist% -T DISCNUMBER=%cdnumber% -T TOTALDISCS=%totalcds% -T TOTALTRACKS=%numtracks% -T COMMENT=%comment% %source% -o %dest%
    TOC of the extracted CD
    Track | Start | Length | Start sector | End sector
    ---------------------------------------------------------
    1 | 0: 00.00 | 3: 23.64 | 0 | 15288
    2 | 3: 23.64 | 3: 17.63 | 15289 | 30126
    3 | 6: 41.52 | 3: 08.34 | 30127 | 44260
    4 | 9: 50.11 | 3: 14.13 | 44261 | 58823
    5 | 13: 04.24 | 2: 44.33 | 58824 | 71156
    6 | 15: 48.57 | 2: 43.13 | 71157 | 83394
    7 | 18: 31.70 | 3: 55.51 | 83395 | 101070
    8 | 22: 27.46 | 3: 55.37 | 101071 | 118732
    9 | 26: 23.08 | 3: 07.07 | 118733 | 132764
    10 | 29: 30.15 | 2: 38.56 | 132765 | 144670
    11 | 32: 08.71 | 2: 24.13 | 144671 | 155483
    12 | 34: 33.09 | 2: 36.55 | 155484 | 167238
    Track 1
    Filename C: EAC ripsRegis Philbin - When You\'re Smiling (2004) FLAC1 You Make Me Feel So Young.wav
    Pre-gap length 0: 00: 02.00
    Peak level 100.0 %
    Extraction speed 1.4 X
    Track quality 99.9 %
    Test CRC 2E4C0D2B
    Copy CRC 2E4C0D2B
    Track not present in AccurateRip database
    Copy OK
    Track 2
    Filename C: EAC ripsRegis Philbin - When You\'re Smiling (2004) FLAC2 Pennies From Heaven.wav
    Pre-gap length 0: 00: 00.30
    Peak level 100.0 %
    Extraction speed 1.5 X
    Track quality 99.9 %
    Test CRC 15470B72
    Copy CRC 15470B72
    Track not present in AccurateRip database
    Copy OK
    Track 3
    Filename C: EAC ripsRegis Philbin - When You\'re Smiling (2004) FLAC3 It Had To Be You.wav
    Pre-gap length 0: 00: 00.39
    Peak level 100.0 %
    Extraction speed 2.3 X
    Track quality 100.0 %
    Test CRC 62AB0F5D
    Copy CRC 62AB0F5D
    Track not present in AccurateRip database
    Copy OK
    Track 4
    Filename C: EAC ripsRegis Philbin - When You\'re Smiling (2004) FLAC4 When You\'re Smiling.wav
    Pre-gap length 0: 00: 01.18
    Peak level 100.0 %
    Extraction speed 1.7 X
    Track quality 99.9 %
    Test CRC DE336374
    Copy CRC DE336374
    Track not present in AccurateRip database
    Copy OK
    Track 5
    Filename C: EAC ripsRegis Philbin - When You\'re Smiling (2004) FLAC5 I Can\'t Give You Anything But Love.wav
    Pre-gap length 0: 00: 01.16
    Peak level 100.0 %
    Extraction speed 2.5 X
    Track quality 100.0 %
    Test CRC 258EBD81
    Copy CRC 258EBD81
    Track not present in AccurateRip database
    Copy OK
    Track 6
    Filename C: EAC ripsRegis Philbin - When You\'re Smiling (2004) FLAC6 They Can\'t Take That Away From Me.wav
    Pre-gap length 0: 00: 00.69
    Peak level 100.0 %
    Extraction speed 2.6 X
    Track quality 100.0 %
    Test CRC 21B46C21
    Copy CRC 21B46C21
    Track not present in AccurateRip database
    Copy OK
    Track 7
    Filename C: EAC ripsRegis Philbin - When You\'re Smiling (2004) FLAC7 The Very Thought Of You.wav
    Pre-gap length 0: 00: 01.07
    Peak level 100.0 %
    Extraction speed 2.1 X
    Track quality 99.9 %
    Test CRC 5C423E3B
    Copy CRC 5C423E3B
    Track not present in AccurateRip database
    Copy OK
    Track 8
    Filename C: EAC ripsRegis Philbin - When You\'re Smiling (2004) FLAC8 Cheek To Cheek.wav
    Pre-gap length 0: 00: 01.25
    Peak level 100.0 %
    Extraction speed 3.0 X
    Track quality 100.0 %
    Test CRC B242026A
    Copy CRC B242026A
    Track not present in AccurateRip database
    Copy OK
    Track 9
    Filename C: EAC ripsRegis Philbin - When You\'re Smiling (2004) FLAC9 What\'ll I Do.wav
    Pre-gap length 0: 00: 00.58
    Peak level 100.0 %
    Extraction speed 3.0 X
    Track quality 100.0 %
    Test CRC 16DAD424
    Copy CRC 16DAD424
    Track not present in AccurateRip database
    Copy OK
    Track 10
    Filename C: EAC ripsRegis Philbin - When You\'re Smiling (2004) FLAC10 You\'re Nobody \'Til Somebody Loves You.wav
    Pre-gap length 0: 00: 01.52
    Peak level 100.0 %
    Extraction speed 3.0 X
    Track quality 100.0 %
    Test CRC A10798E1
    Copy CRC A10798E1
    Track not present in AccurateRip database
    Copy OK
    Track 11
    Filename C: EAC ripsRegis Philbin - When You\'re Smiling (2004) FLAC11 Exactly Like You.wav
    Pre-gap length 0: 00: 01.24
    Peak level 100.0 %
    Extraction speed 3.0 X
    Track quality 100.0 %
    Test CRC 9315E9B4
    Copy CRC 9315E9B4
    Track not present in AccurateRip database
    Copy OK
    Track 12
    Filename C: EAC ripsRegis Philbin - When You\'re Smiling (2004) FLAC12 Too Ra Loo Ra Loo Ral.wav
    Pre-gap length 0: 00: 01.55
    Peak level 100.0 %
    Extraction speed 2.0 X
    Track quality 99.9 %
    Test CRC 5BF9384A
    Copy CRC 5BF9384A
    Track not present in AccurateRip database
    Copy OK
    None of the tracks are present in the AccurateRip database
    No errors occurred
    End of status report
    ---- CUETools DB Plugin V2.1.3
    CTDB TOCID: YD1Kg3Cwhs2x.f2OqN8_QVmLhV4- disk not present in database, Submit result: YD1Kg3Cwhs2x.f2OqN8_QVmLhV4- has been uploaded
    ==== Log checksum ACE09BF95F3A89679090EA37D25043BDB8CE02EEE80257C4886A803FC26B54A3 ====
    Время раздачи: c 15: 00 до 22: 00 (до появления первых 3-5 скачавших)


    Поглощение/вытеснение
    Только с согласия релизера

    Beijing65

    Regis Philbin - When Youre Smiling (2004) Hollywood Records [FLAC|Lossless|tracks + .cue] <Vocal Jazz> торрент скачать бесплатно
    Рейтинг →
     (голосов: 1, оценка 4/5, голосовать можно 1 раз )

    Другие торренты по теме:

  • Signum Regis - Chapter IV: The Reckoning (2015) [MP3|320 кб / с]<Progressive, Power Metal> скачать через торрент бесплатно
  • Signum Regis - Through The Storm (2015) EP [FLAC|Lossless|image + .cue] <Power Metal, Progressive Metal>
  • Irazu & Regis - Shtamm (2017) [FLAC|Lossless|WEB-DL|tracks] <Techno>
  • Signum Regis - Decennium Primum (2017) Japan [FLAC|Lossless|image + .cue] <Power Metal>


    • Комментарии (0):

      Информация

      Информация

        Посетители, находящиеся в группе Гости, не могут оставлять комментарии в данной новости.

        ↓ Меню




        Популярное