.
Авторизация | Регистрация
bitok.xyz
» » V.A. - Radiohead In Jazz (2019) [FLAC|Lossless|tracks + .cue] <Fusion, Big Band> торрент скачать бесплатно


    V.A. - Radiohead In Jazz (2019) [FLAC|Lossless|tracks + .cue] <Fusion, Big Band> торрент скачать бесплатно

    Дата: 23-12-2019, 05:00 | .torrent скачали: 5

    V.A. - Radiohead In Jazz (2019) [FLAC|Lossless|tracks + .cue] &ltFusion, Big Band>Жанр: Fusion, Big Band
    Издание: Wagram Music - 3365572
    Источник: GratefulEd
    Продолжительность: 01: 17: 56
    Кодек: FLAC
    Битрейт: Lossless
    Тип рипа: tracks + .cue

    Треклист

    01. Jamie Cullum, Geoff Gascoyne, Sebastian de Krom - High and Dry
    02. Yaron Herman Trio - No Surprises
    03. Richard Cheese - Creep
    04. Flunk - Karma Police
    05. Magnetic Ear - Everything in Its Right Place
    06. Michael Udelson Trio - Paranoid Android
    07. Dan White Sextet - Little by Little
    08. Terni Jazz Orchestra - Knives Out
    09. Ian Toms Trio - Fake Plastic Trees
    10. Noordpool Orchestra - Suite: Everything in Its Right Place - Pyramid Song
    11. Marco Sanguinetti - We Suck Young Blood
    12. Realistic Orchestra - Pyramid Song
    13. Oxymore Quintet - Optimistic
    14. Marco Sanguinetti - Motion Picture Soundtrack
    Thom Yorke in Jazz:
    15. Trey Wright Trio - Analyse
    Exact Audio Copy V1.3 from 2. September 2016
    EAC extraction logfile from 2. December 2019, 18: 47
    Various/Radiohead in Jazz
    Used drive : TSSTcorpDVDWBD SH-B123L Adapter: 1 ID: 0
    Read mode : Secure
    Utilize accurate stream : Yes
    Defeat audio cache : Yes
    Make use of C2 pointers : No
    Read offset correction : 6
    Overread into Lead-In and Lead-Out : No
    Fill up missing offset samples with silence : Yes
    Delete leading and trailing silent blocks : No
    Null samples used in CRC calculations : Yes
    Used interface : Native Win32 interface for Win NT 2000
    Gap handling : Appended to previous track
    Used output format : User Defined Encoder
    Selected bitrate : 1024 kBit/s
    Quality : High
    Add ID3 tag : No
    Command line compressor : C: AppsFlacflac.exe
    Additional command line options : -8 -V -T ARTIST=%artist% -T TITLE=%title% -T ALBUM=%albumtitle% -T DATE=%year% -T TRACKNUMBER=%tracknr% -T GENRE=%genre% -T PERFORMER=%albuminterpret% -T COMPOSER=%composer% %haslyrics%--tag-from-file=LYRICS=%lyricsfile%%haslyrics% -T ALBUMARTIST=%albumartist% -T DISCNUMBER=%cdnumber% -T TOTALDISCS=%totalcds% -T TOTALTRACKS=%numtracks% -T COMMENT=%comment% %source% -o %dest%
    TOC of the extracted CD
    Track | Start | Length | Start sector | End sector
    ---------------------------------------------------------
    1 | 0: 00.00 | 4: 50.47 | 0 | 21796
    2 | 4: 50.47 | 2: 52.54 | 21797 | 34750
    3 | 7: 43.26 | 2: 30.68 | 34751 | 46068
    4 | 10: 14.19 | 5: 23.53 | 46069 | 70346
    5 | 15: 37.72 | 3: 50.49 | 70347 | 87645
    6 | 19: 28.46 | 5: 00.21 | 87646 | 110166
    7 | 24: 28.67 | 6: 39.34 | 110167 | 140125
    8 | 31: 08.26 | 5: 27.70 | 140126 | 164720
    9 | 36: 36.21 | 6: 12.36 | 164721 | 192656
    10 | 42: 48.57 | 7: 44.44 | 192657 | 227500
    11 | 50: 33.26 | 4: 50.24 | 227501 | 249274
    12 | 55: 23.50 | 7: 40.36 | 249275 | 283810
    13 | 63: 04.11 | 4: 55.28 | 283811 | 305963
    14 | 67: 59.39 | 3: 02.27 | 305964 | 319640
    15 | 71: 01.66 | 6: 54.23 | 319641 | 350713
    Track 1
    Filename C: RipsVarious - Radiohead in Jazz (2019) {3365572} FLAC1 - Jamie Cullum, Geoff Gascoyne, Sebastian de Krom - High and Dry.wav
    Pre-gap length 0: 00: 02.00
    Peak level 89.1 %
    Extraction speed 2.4 X
    Track quality 100.0 %
    Test CRC 4A5C0714
    Copy CRC 4A5C0714
    Accurately ripped (confidence 2) FE468A28 (AR v2)
    Copy OK
    Track 2
    Filename C: RipsVarious - Radiohead in Jazz (2019) {3365572} FLAC2 - Yaron Herman Trio - No Surprises.wav
    Peak level 95.5 %
    Extraction speed 2.3 X
    Track quality 100.0 %
    Test CRC 04849B5F
    Copy CRC 04849B5F
    Accurately ripped (confidence 2) F8405FB1 (AR v2)
    Copy OK
    Track 3
    Filename C: RipsVarious - Radiohead in Jazz (2019) {3365572} FLAC3 - Richard Cheese - Creep.wav
    Peak level 77.9 %
    Extraction speed 2.4 X
    Track quality 100.0 %
    Test CRC E57D02CA
    Copy CRC E57D02CA
    Accurately ripped (confidence 2) 4FC49091 (AR v2)
    Copy OK
    Track 4
    Filename C: RipsVarious - Radiohead in Jazz (2019) {3365572} FLAC4 - Flunk - Karma Police.wav
    Peak level 94.3 %
    Extraction speed 2.5 X
    Track quality 99.9 %
    Test CRC E5E33473
    Copy CRC E5E33473
    Accurately ripped (confidence 2) B2AE2731 (AR v2)
    Copy OK
    Track 5
    Filename C: RipsVarious - Radiohead in Jazz (2019) {3365572} FLAC5 - Magnetic Ear - Everything in Its Right Place.wav
    Peak level 81.5 %
    Extraction speed 2.9 X
    Track quality 100.0 %
    Test CRC C16954BE
    Copy CRC C16954BE
    Accurately ripped (confidence 2) 374EDBB5 (AR v2)
    Copy OK
    Track 6
    Filename C: RipsVarious - Radiohead in Jazz (2019) {3365572} FLAC6 - Michael Udelson Trio - Paranoid Android.wav
    Peak level 100.0 %
    Extraction speed 3.2 X
    Track quality 100.0 %
    Test CRC 4892C972
    Copy CRC 4892C972
    Accurately ripped (confidence 2) A5A74410 (AR v2)
    Copy OK
    Track 7
    Filename C: RipsVarious - Radiohead in Jazz (2019) {3365572} FLAC7 - Dan White Sextet - Little by Little.wav
    Peak level 89.1 %
    Extraction speed 3.5 X
    Track quality 100.0 %
    Test CRC 0C34506A
    Copy CRC 0C34506A
    Accurately ripped (confidence 2) 8DA5E366 (AR v2)
    Copy OK
    Track 8
    Filename C: RipsVarious - Radiohead in Jazz (2019) {3365572} FLAC8 - Terni Jazz Orchestra - Knives Out.wav
    Peak level 100.0 %
    Extraction speed 3.7 X
    Track quality 100.0 %
    Test CRC 53ABD88F
    Copy CRC 53ABD88F
    Accurately ripped (confidence 2) 1E16C9C2 (AR v2)
    Copy OK
    Track 9
    Filename C: RipsVarious - Radiohead in Jazz (2019) {3365572} FLAC9 - Ian Toms Trio - Fake Plastic Trees.wav
    Peak level 100.0 %
    Extraction speed 3.4 X
    Track quality 99.9 %
    Test CRC 18F0FBAC
    Copy CRC 18F0FBAC
    Accurately ripped (confidence 2) C9ABE775 (AR v2)
    Copy OK
    Track 10
    Filename C: RipsVarious - Radiohead in Jazz (2019) {3365572} FLAC10 - Noorpool Orchestra - Suite- Everything in Its Right Place - Pyramid Song.wav
    Peak level 100.0 %
    Extraction speed 4.2 X
    Track quality 100.0 %
    Test CRC 9862D031
    Copy CRC 9862D031
    Accurately ripped (confidence 2) 7E7309A7 (AR v2)
    Copy OK
    Track 11
    Filename C: RipsVarious - Radiohead in Jazz (2019) {3365572} FLAC11 - Marco Sanguinetti - We Suck Young Blood.wav
    Peak level 99.1 %
    Extraction speed 4.2 X
    Track quality 100.0 %
    Test CRC 86213FD6
    Copy CRC 86213FD6
    Accurately ripped (confidence 2) 4F3A4DEB (AR v2)
    Copy OK
    Track 12
    Filename C: RipsVarious - Radiohead in Jazz (2019) {3365572} FLAC12 - Realistic Orchestra - Pyramid Song.wav
    Peak level 88.1 %
    Extraction speed 4.0 X
    Track quality 99.9 %
    Test CRC F52F1C5E
    Copy CRC F52F1C5E
    Accurately ripped (confidence 2) 8DE38C91 (AR v2)
    Copy OK
    Track 13
    Filename C: RipsVarious - Radiohead in Jazz (2019) {3365572} FLAC13 - Oxymore Quintet - Optimistic.wav
    Peak level 100.0 %
    Extraction speed 4.6 X
    Track quality 100.0 %
    Test CRC 3A3D4250
    Copy CRC 3A3D4250
    Accurately ripped (confidence 2) F028C9F9 (AR v2)
    Copy OK
    Track 14
    Filename C: RipsVarious - Radiohead in Jazz (2019) {3365572} FLAC14 - Marco Sanguinetti - Motion Picture Soundtrack.wav
    Peak level 100.0 %
    Extraction speed 4.4 X
    Track quality 100.0 %
    Test CRC D14A2E52
    Copy CRC D14A2E52
    Accurately ripped (confidence 2) 5409EC3A (AR v2)
    Copy OK
    Track 15
    Filename C: RipsVarious - Radiohead in Jazz (2019) {3365572} FLAC15 - Thom Yorke in Jazz, Trey Wright Trio - Analyse (Bonus Track).wav
    Peak level 97.8 %
    Extraction speed 3.9 X
    Track quality 99.9 %
    Test CRC D690B410
    Copy CRC D690B410
    Accurately ripped (confidence 2) 9009A59A (AR v2)
    Copy OK
    All tracks accurately ripped
    No errors occurred
    End of status report
    ---- CUETools DB Plugin V2.1.6
    CTDB TOCID: TP3s2YbaIlKjYeNeugZrkzkM8lU- found
    Submit result: TP3s2YbaIlKjYeNeugZrkzkM8lU- has been confirmed
    Track | CTDB Status
    1 | (5/5) Accurately ripped
    2 | (5/5) Accurately ripped
    3 | (5/5) Accurately ripped
    4 | (5/5) Accurately ripped
    5 | (5/5) Accurately ripped
    6 | (5/5) Accurately ripped
    7 | (5/5) Accurately ripped
    8 | (5/5) Accurately ripped
    9 | (5/5) Accurately ripped
    10 | (5/5) Accurately ripped
    11 | (5/5) Accurately ripped
    12 | (5/5) Accurately ripped
    13 | (5/5) Accurately ripped
    14 | (5/5) Accurately ripped
    15 | (5/5) Accurately ripped
    ==== Log checksum BD85562C1FBF0EA9F841A143CAD8916774440AD6B4713DB5EF93146E940D2CB2 ====

    Время раздачи: С 19: 30 до 08: 00 МСК (до появления первых 3-5 скачавших)


    Поглощение/вытеснение
    Только с согласия релизера

    Beijing65

    V.A. - Radiohead In Jazz (2019) [FLAC|Lossless|tracks + .cue] <Fusion, Big Band>
    Рейтинг →
     (голосов: 1, оценка 5/5, голосовать можно 1 раз )

    Другие торренты по теме:

  • Radiohead – 27 5 94 The Astoria London Live (1995, remastered 2005) DVD9
  • Radiohead - The Best Of (2008) DVD9
  • Radiohead - A Moon Shaped Pool (2016) [FLAC|Lossless|WEB-DL|tracks] <Alternative, Indie Rock>
  • Radiohead - A Moon Shaped Pool (2016) [MP3|320 кб / с] <Alternative, Indie Rock>
  • Radiohead - A Moon Shaped Pool (2016) [FLAC|Lossless|tracks + .cue] <Art Rock, Indie Rock>
  • Radiohead - Present Tense (2016) Single, Promo [MP3|320 Kbps] <Alternative, Indie Rock>
  • VA - Radiohead - Best275z (1993 - 2016) [MP3|320 Kbps] <Alternative Rock, Electronic>
  • Radiohead - Pablo Honey (1993) [FLAC|Lossless|tracks + .cue] <Alternative Rock>


    • Комментарии (0):

      Информация

      Информация

        Посетители, находящиеся в группе Гости, не могут оставлять комментарии в данной новости.

        ↓ Меню




        ↓ Опрос

        Вы добавили сайт в закладки?
        Да
        Нет


        Популярное

        ДиДюЛя - 17 альбомов (2000-2017) дискография [MP3|320 кб / с] <Фолк,Фламенко,Фьюжн>

        (скачиваний: 157)
        Чиж & Co - Коллекция легендарных песен (2014) [MP3|320 кб / с]<Rock> скачать через торрент бесплатно

        (скачиваний: 140)
        Стас Намин и Группа ЦВЕТЫ - 40 лет (Полная версия концерта) - Crocus Hall (Live) (2010) HDTVRip [AVC / H.264, 1080p]

        (скачиваний: 102)
        VA - Большая коллекция клипов в авто (2DIN) (2000-2016) SATRip

        (скачиваний: 100)
        The Beatles - Collection of video clips (1964-1983) HDTV [720p] скачать через торрент бесплатно

        (скачиваний: 54)
        Дима Билан - 12 альбомов, 4 сингла (2003 - 2017) [MP3|320 Kbps] <Pop>

        (скачиваний: 49)
        Александр Марцинкевич и группа Кабриолет - Лучших 50 песен (2016) Compilation [FLAC|Lossless|WEB-DL|tracks] <Chanson>

        (скачиваний: 43)
        Голубой огонек - "В первый час..." (1965) SATRip [H.264] [colourization] скачать через торрент бесплатно

        (скачиваний: 41)
        Демис Руссос - Лучшее (2010) 4CD [MP3|320 кб / с]<Pop>

        (скачиваний: 36)
        Канцлер Ги - 17 альбомов (2002-2017) [MP3|97-320 kbps]<Нео-Фолк / блюз>

        (скачиваний: 36)