.
Авторизация | Регистрация
bitok.xyz
» » Jeff Goldblum & The Mildred Snitzer Orchestra - The Capitol Studios Sessions (2018) Decca [FLAC|Lossless|tracks + .cue] <Vocal Jazz, Big Band> торрент скачать бесплатно


    Jeff Goldblum & The Mildred Snitzer Orchestra - The Capitol Studios Sessions (2018) Decca [FLAC|Lossless|tracks + .cue] <Vocal Jazz, Big Band> торрент скачать бесплатно

    Дата: 23-12-2019, 05:00 | .torrent скачали: 1

    Jeff Goldblum & The Mildred Snitzer Orchestra - The Capitol Studios Sessions (2018) Decca [FLAC|Lossless|tracks + .cue] &ltVocal Jazz, Big Band>Жанр: Vocal Jazz, Big Band
    Издание: Decca - B0029202-02
    Продолжительность: 00: 57: 28
    Кодек: FLAC (tracks+.cue)
    Битрейт: Lossless
    Источник (релизер): catfish27
    Страна-производитель диска: USA
    Наличие сканов в содержимом раздачи: да

    Треклист

    01. Cantaloupe Island 5: 43
    02. Don’t Mess with Mister T (feat. Till Bronner) 4: 34
    03. My Baby Just Cares for Me (feat. Haley Reinhart Till Bronner) 5: 15
    04. Straighten Up and Fly Right (feat. Imelda May Till Bronner) 3: 13
    05. Jeff Introduces Sarah Silverman (feat. Sarah Silverman) 3: 02
    06. Me and My Shadow (feat. Sarah Silverman Till Bronner) 4: 08
    07. Nostalgia in Times Square 4: 48
    08. It Never Entered My Mind (feat. Till Bronner) 6: 05
    09. Gee Baby (Ain’t I Good to You) (feat. Haley Reinhart) 3: 11
    10. I Wish I Knew (How It Would Feel to Be Free) 3: 59
    11. This Bitter Earth (feat. Imelda May Till Bronner) 4: 18
    12. Come On-A-My House (feat. Imelda May Till Bronner) 3: 03
    13. Caravan (feat. Till Bronner) 5: 04
    14. Good Nights 1: 06
    X Lossless Decoder version 20181019 (151.1)
    XLD extraction logfile from 2019-01-16 17: 53: 32 -0800
    Jeff Goldblum The Mildred Snitzer Orchestra/The Capitol Studios Sessions
    Used drive : PIONEER BD-RW BDR-XD05 (revision 3.10)
    Media type : Pressed CD
    Ripper mode : XLD Secure Ripper
    Disable audio cache : OK for the drive with a cache less than 1375KiB
    Make use of C2 pointers : NO
    Read offset correction : 667
    Max retry count : 100
    Gap status : Analyzed, Appended (except HTOA)
    TOC of the extracted CD
    Track | Start | Length | Start sector | End sector
    ---------------------------------------------------------
    1 | 00: 00: 00 | 05: 42: 56 | 0 | 25705
    2 | 05: 42: 56 | 04: 34: 26 | 25706 | 46281
    3 | 10: 17: 07 | 05: 14: 59 | 46282 | 69890
    4 | 15: 31: 66 | 03: 13: 05 | 69891 | 84370
    5 | 18: 44: 71 | 03: 01: 51 | 84371 | 97996
    6 | 21: 46: 47 | 04: 08: 33 | 97997 | 116629
    7 | 25: 55: 05 | 04: 48: 04 | 116630 | 138233
    8 | 30: 43: 09 | 06: 04: 52 | 138234 | 165585
    9 | 36: 47: 61 | 03: 10: 65 | 165586 | 179900
    10 | 39: 58: 51 | 03: 58: 49 | 179901 | 197799
    11 | 43: 57: 25 | 04: 18: 04 | 197800 | 217153
    12 | 48: 15: 29 | 03: 02: 67 | 217154 | 230870
    13 | 51: 18: 21 | 05: 03: 51 | 230871 | 253646
    14 | 56: 21: 72 | 01: 05: 64 | 253647 | 258585
    AccurateRip Summary (DiscID: 001fc760-014e3aad-c30d770e)
    Track 01 : OK (v2, confidence 8/8)
    Track 02 : OK (v2, confidence 9/9)
    Track 03 : OK (v2, confidence 9/9)
    Track 04 : OK (v2, confidence 9/9)
    Track 05 : OK (v2, confidence 9/9)
    Track 06 : OK (v2, confidence 9/9)
    Track 07 : OK (v2, confidence 9/9)
    Track 08 : OK (v2, confidence 9/9)
    Track 09 : OK (v2, confidence 9/9)
    Track 10 : OK (v2, confidence 9/9)
    Track 11 : OK (v2, confidence 9/9)
    Track 12 : OK (v2, confidence 9/9)
    Track 13 : OK (v2, confidence 9/9)
    Track 14 : OK (v2, confidence 9/9)
    -All tracks accurately ripped.
    All Tracks
    Album gain : -6.95 dB
    Peak : 0.988708
    Statistics
    Read error : 0
    Jitter error (maybe fixed) : 0
    Retry sector count : 0
    Damaged sector count : 0
    Track 01
    Filename : /Volumes/Hollywood and Vine/Rips/Jeff Goldblum The Mildred Snitzer Orchestra - The Capitol Studios Sessions (2018) FLAC/01 Cantaloupe Island.flac
    Pre-gap length : 00: 02: 00
    Track gain : -7.57 dB
    Peak : 0.988678
    CRC32 hash (test run) : 1D12A691
    CRC32 hash : 1D12A691
    CRC32 hash (skip zero) : 6DF9DE8E
    AccurateRip v1 signature : 08C2E8E1
    AccurateRip v2 signature : C4D2043D
    -Accurately ripped (v2, confidence 8/8)
    Statistics
    Read error : 0
    Jitter error (maybe fixed) : 0
    Retry sector count : 0
    Damaged sector count : 0
    Track 02
    Filename : /Volumes/Hollywood and Vine/Rips/Jeff Goldblum The Mildred Snitzer Orchestra - The Capitol Studios Sessions (2018) FLAC/02 Don’t Mess With Mister T.flac
    Track gain : -6.59 dB
    Peak : 0.988678
    CRC32 hash (test run) : 26971B3E
    CRC32 hash : 26971B3E
    CRC32 hash (skip zero) : BC5B7F2C
    AccurateRip v1 signature : B51B89D1
    AccurateRip v2 signature : EF4A305C
    -Accurately ripped (v2, confidence 9/9)
    Statistics
    Read error : 0
    Jitter error (maybe fixed) : 0
    Retry sector count : 0
    Damaged sector count : 0
    Track 03
    Filename : /Volumes/Hollywood and Vine/Rips/Jeff Goldblum The Mildred Snitzer Orchestra - The Capitol Studios Sessions (2018) FLAC/03 My Baby Just Cares for Me.flac
    Track gain : -6.07 dB
    Peak : 0.988647
    CRC32 hash (test run) : 3006DF58
    CRC32 hash : 3006DF58
    CRC32 hash (skip zero) : 81BB8F46
    AccurateRip v1 signature : ECC326E4
    AccurateRip v2 signature : 72710566
    -Accurately ripped (v2, confidence 9/9)
    Statistics
    Read error : 0
    Jitter error (maybe fixed) : 0
    Retry sector count : 0
    Damaged sector count : 0
    Track 04
    Filename : /Volumes/Hollywood and Vine/Rips/Jeff Goldblum The Mildred Snitzer Orchestra - The Capitol Studios Sessions (2018) FLAC/04 Straighten Up and Fly Right.flac
    Track gain : -7.49 dB
    Peak : 0.988708
    CRC32 hash (test run) : F602B046
    CRC32 hash : F602B046
    CRC32 hash (skip zero) : F174661F
    AccurateRip v1 signature : 76762A74
    AccurateRip v2 signature : B4E85076
    -Accurately ripped (v2, confidence 9/9)
    Statistics
    Read error : 0
    Jitter error (maybe fixed) : 0
    Retry sector count : 0
    Damaged sector count : 0
    Track 05
    Filename : /Volumes/Hollywood and Vine/Rips/Jeff Goldblum The Mildred Snitzer Orchestra - The Capitol Studios Sessions (2018) FLAC/05 Jeff Introduces Sarah Silverman.flac
    Track gain : 0.75 dB
    Peak : 0.940826
    CRC32 hash (test run) : F30D55F1
    CRC32 hash : F30D55F1
    CRC32 hash (skip zero) : B8ABF150
    AccurateRip v1 signature : BB9E709E
    AccurateRip v2 signature : E2BA7E05
    -Accurately ripped (v2, confidence 9/9)
    Statistics
    Read error : 0
    Jitter error (maybe fixed) : 0
    Retry sector count : 0
    Damaged sector count : 0
    Track 06
    Filename : /Volumes/Hollywood and Vine/Rips/Jeff Goldblum The Mildred Snitzer Orchestra - The Capitol Studios Sessions (2018) FLAC/06 Me and My Shadow.flac
    Track gain : -6.46 dB
    Peak : 0.988678
    CRC32 hash (test run) : 444D8D6E
    CRC32 hash : 444D8D6E
    CRC32 hash (skip zero) : 88CC9768
    AccurateRip v1 signature : 521107A1
    AccurateRip v2 signature : F5FC3D0E
    -Accurately ripped (v2, confidence 9/9)
    Statistics
    Read error : 0
    Jitter error (maybe fixed) : 0
    Retry sector count : 0
    Damaged sector count : 0
    Track 07
    Filename : /Volumes/Hollywood and Vine/Rips/Jeff Goldblum The Mildred Snitzer Orchestra - The Capitol Studios Sessions (2018) FLAC/07 Nostalgia in Times Square.flac
    Track gain : -8.09 dB
    Peak : 0.988678
    CRC32 hash (test run) : 0B1FB4FB
    CRC32 hash : 0B1FB4FB
    CRC32 hash (skip zero) : A4E9FC48
    AccurateRip v1 signature : 6A566821
    AccurateRip v2 signature : 9508C7F9
    -Accurately ripped (v2, confidence 9/9)
    Statistics
    Read error : 0
    Jitter error (maybe fixed) : 0
    Retry sector count : 0
    Damaged sector count : 0
    Track 08
    Filename : /Volumes/Hollywood and Vine/Rips/Jeff Goldblum The Mildred Snitzer Orchestra - The Capitol Studios Sessions (2018) FLAC/08 It Never Entered My Mind.flac
    Track gain : -3.97 dB
    Peak : 0.984314
    CRC32 hash (test run) : 6A6362FD
    CRC32 hash : 6A6362FD
    CRC32 hash (skip zero) : 7BF50918
    AccurateRip v1 signature : 31969B67
    AccurateRip v2 signature : C3C40818
    -Accurately ripped (v2, confidence 9/9)
    Statistics
    Read error : 0
    Jitter error (maybe fixed) : 0
    Retry sector count : 0
    Damaged sector count : 0
    Track 09
    Filename : /Volumes/Hollywood and Vine/Rips/Jeff Goldblum The Mildred Snitzer Orchestra - The Capitol Studios Sessions (2018) FLAC/09 Gee Baby (Ain’t I Good to You).flac
    Track gain : -7.45 dB
    Peak : 0.988708
    CRC32 hash (test run) : E5EDCD3C
    CRC32 hash : E5EDCD3C
    CRC32 hash (skip zero) : D3E9E0E2
    AccurateRip v1 signature : B00D1D5E
    AccurateRip v2 signature : 3657D495
    -Accurately ripped (v2, confidence 9/9)
    Statistics
    Read error : 0
    Jitter error (maybe fixed) : 0
    Retry sector count : 0
    Damaged sector count : 0
    Track 10
    Filename : /Volumes/Hollywood and Vine/Rips/Jeff Goldblum The Mildred Snitzer Orchestra - The Capitol Studios Sessions (2018) FLAC/10 I Wish I Knew (How It Would Feel to Be Free).flac
    Track gain : -9.12 dB
    Peak : 0.988678
    CRC32 hash (test run) : A8E30DAF
    CRC32 hash : A8E30DAF
    CRC32 hash (skip zero) : 00F3C6F9
    AccurateRip v1 signature : 16415B6D
    AccurateRip v2 signature : 14D42221
    -Accurately ripped (v2, confidence 9/9)
    Statistics
    Read error : 0
    Jitter error (maybe fixed) : 0
    Retry sector count : 0
    Damaged sector count : 0
    Track 11
    Filename : /Volumes/Hollywood and Vine/Rips/Jeff Goldblum The Mildred Snitzer Orchestra - The Capitol Studios Sessions (2018) FLAC/11 This Bitter Earth.flac
    Track gain : -2.80 dB
    Peak : 0.932831
    CRC32 hash (test run) : 915359A4
    CRC32 hash : 915359A4
    CRC32 hash (skip zero) : A0E20CD8
    AccurateRip v1 signature : A41D0434
    AccurateRip v2 signature : 35225E97
    -Accurately ripped (v2, confidence 9/9)
    Statistics
    Read error : 0
    Jitter error (maybe fixed) : 0
    Retry sector count : 0
    Damaged sector count : 0
    Track 12
    Filename : /Volumes/Hollywood and Vine/Rips/Jeff Goldblum The Mildred Snitzer Orchestra - The Capitol Studios Sessions (2018) FLAC/12 Come On‐A‐My House.flac
    Track gain : -4.49 dB
    Peak : 0.988647
    CRC32 hash (test run) : CF770C8D
    CRC32 hash : CF770C8D
    CRC32 hash (skip zero) : 5689078E
    AccurateRip v1 signature : EE33349E
    AccurateRip v2 signature : E511125E
    -Accurately ripped (v2, confidence 9/9)
    Statistics
    Read error : 0
    Jitter error (maybe fixed) : 0
    Retry sector count : 0
    Damaged sector count : 0
    Track 13
    Filename : /Volumes/Hollywood and Vine/Rips/Jeff Goldblum The Mildred Snitzer Orchestra - The Capitol Studios Sessions (2018) FLAC/13 Caravan.flac
    Track gain : -8.46 dB
    Peak : 0.988708
    CRC32 hash (test run) : 939E3957
    CRC32 hash : 939E3957
    CRC32 hash (skip zero) : 1822A506
    AccurateRip v1 signature : 9AE6B8B7
    AccurateRip v2 signature : 79DA88B5
    -Accurately ripped (v2, confidence 9/9)
    Statistics
    Read error : 0
    Jitter error (maybe fixed) : 0
    Retry sector count : 0
    Damaged sector count : 0
    Track 14
    Filename : /Volumes/Hollywood and Vine/Rips/Jeff Goldblum The Mildred Snitzer Orchestra - The Capitol Studios Sessions (2018) FLAC/14 Good Nights.flac
    Track gain : -7.30 dB
    Peak : 0.988647
    CRC32 hash (test run) : 428FD197
    CRC32 hash : 428FD197
    CRC32 hash (skip zero) : 79551E5D
    AccurateRip v1 signature : 6CA0C7F0
    AccurateRip v2 signature : 3C1FA9FB
    -Accurately ripped (v2, confidence 9/9)
    Statistics
    Read error : 0
    Jitter error (maybe fixed) : 0
    Retry sector count : 0
    Damaged sector count : 0
    No errors occurred
    End of status report
    -----BEGIN XLD SIGNATURE-----
    9VzappnovQNFJVaqNodDUx1.yIXy8sYrC2yAZhaPpJQfOZpPBo8w0fREAvR9kob4sxKGovtAqQSq.z0gOZU.MA0qWwHUSKh4Zucc5Gy
    -----END XLD SIGNATURE-----
    Время раздачи: c 15: 00 до 22: 00 (до появления первых 3-5 скачавших)


    Поглощение/вытеснение
    Только с согласия релизера

    Beijing65

    Jeff Goldblum & The Mildred Snitzer Orchestra - The Capitol Studios Sessions (2018) Decca [FLAC|Lossless|tracks + .cue] <Vocal Jazz, Big Band>
    Рейтинг →
     (голосов: 1, оценка 5/5, голосовать можно 1 раз )

    Другие торренты по теме:

  • Jeff Goldblum & The Mildred Snitzer Orchestra - I Shouldnt Be Telling You This (2019) Decca [FLAC|Lossless|tracks + .cue] <Vocal Jazz, Big Band>


    • Комментарии (0):

      Информация

      Информация

        Посетители, находящиеся в группе Гости, не могут оставлять комментарии в данной новости.

        ↓ Меню




        ↓ Опрос

        Вы добавили сайт в закладки?
        Да
        Нет


        Популярное

        ДиДюЛя - 17 альбомов (2000-2017) дискография [MP3|320 кб / с] <Фолк,Фламенко,Фьюжн>

        (скачиваний: 159)
        Чиж & Co - Коллекция легендарных песен (2014) [MP3|320 кб / с]<Rock> скачать через торрент бесплатно

        (скачиваний: 155)
        VA - Большая коллекция клипов в авто (2DIN) (2000-2016) SATRip

        (скачиваний: 103)
        Стас Намин и Группа ЦВЕТЫ - 40 лет (Полная версия концерта) - Crocus Hall (Live) (2010) HDTVRip [AVC / H.264, 1080p]

        (скачиваний: 103)
        The Beatles - Collection of video clips (1964-1983) HDTV [720p] скачать через торрент бесплатно

        (скачиваний: 57)
        Дима Билан - 12 альбомов, 4 сингла (2003 - 2017) [MP3|320 Kbps] <Pop>

        (скачиваний: 55)
        Александр Марцинкевич и группа Кабриолет - Лучших 50 песен (2016) Compilation [FLAC|Lossless|WEB-DL|tracks] <Chanson>

        (скачиваний: 48)
        Голубой огонек - "В первый час..." (1965) SATRip [H.264] [colourization] скачать через торрент бесплатно

        (скачиваний: 41)
        Канцлер Ги - 17 альбомов (2002-2017) [MP3|97-320 kbps]<Нео-Фолк / блюз>

        (скачиваний: 39)
        Демис Руссос - Лучшее (2010) 4CD [MP3|320 кб / с]<Pop>

        (скачиваний: 36)