.
Авторизация | Регистрация
bitok.xyz
» » Emigrate - 3 Albums, 3 Singles (2007-2018) 6CD [FLAC|Lossless|image + .cue|tracks + .cue] <Alternative Metal, Industrial Rock, Industrial Metal> торрент скачать бесплатно


    Emigrate - 3 Albums, 3 Singles (2007-2018) 6CD [FLAC|Lossless|image + .cue|tracks + .cue] <Alternative Metal, Industrial Rock, Industrial Metal> торрент скачать бесплатно

    Дата: 24-12-2019, 05:00 | .torrent скачали: 0

    Emigrate - 3 Albums, 3 Singles (2007-2018) 6CD [FLAC|Lossless|image + .cue|tracks + .cue] &ltAlternative Metal, Industrial Rock, Industrial Metal>Издание: Motor Music - 8323018
    Особенность релиза: Limited Edition, Digipak
    Продолжительноcть: 00: 51: 40

    Треклиcт:
    01. Emigrate (4: 07)
    02. Wake Up (3: 33)
    03. My World (4: 17)
    04. Let Me Break (3: 35)
    05. In My Tears (4: 34)
    06. Babe (4: 28)
    07. New York City (3: 40)
    08. Resolution (3: 42)
    09. Temptation (4: 13)
    10. This Is What (4: 38)
    11. You Can\'t Get Enough (4: 03)
    Bonus Tracks:
    12. Blood (3: 34)
    13. Help Me (3: 15) Код: выделить всеExact Audio Copy V1.3 from 2. September 2016
    EAC extraction logfile from 7. April 2019, 14:40
    Emigrate/Emigrate
    Used drive : HP DVD Writer 1170d Adapter: 1 ID: 1
    Read mode : Secure
    Utilize accurate stream : Yes
    Defeat audio cache : Yes
    Make use of C2 pointers : No
    Read offset correction : 6
    Overread into Lead-In and Lead-Out : No
    Fill up missing offset samples with silence : Yes
    Delete leading and trailing silent blocks : No
    Null samples used in CRC calculations : Yes
    Used interface : Native Win32 interface for Win NT 2000
    Used output format : User Defined Encoder
    Selected bitrate : 1024 kBit/s
    Quality : High
    Add ID3 tag : No
    Command line compressor : C:Program Files (x86)Exact Audio CopyFlacflac.exe
    Additional command line options : -V -8 -T Date=%year% -T Genre=%genre% %source%
    TOC of the extracted CD
    Track | Start | Length | Start sector | End sector
    ---------------------------------------------------------
    1 | 0:00.00 | 4:07.12 | 0 | 18536
    2 | 4:07.12 | 3:32.72 | 18537 | 34508
    3 | 7:40.09 | 4:17.37 | 34509 | 53820
    4 | 11:57.46 | 3:34.42 | 53821 | 69912
    5 | 15:32.13 | 4:34.02 | 69913 | 90464
    6 | 20:06.15 | 4:28.36 | 90465 | 110600
    7 | 24:34.51 | 3:39.65 | 110601 | 127090
    8 | 28:14.41 | 3:41.73 | 127091 | 143738
    9 | 31:56.39 | 4:12.41 | 143739 | 162679
    10 | 36:09.05 | 4:38.29 | 162680 | 183558
    11 | 40:47.34 | 4:02.45 | 183559 | 201753
    12 | 44:50.04 | 3:34.28 | 201754 | 217831
    13 | 48:24.32 | 3:15.19 | 217832 | 232475
    Range status and errors
    Selected range
    Filename C:EACungern666Emigrate - Emigrate.wav
    Peak level 99.9 %
    Extraction speed 5.6 X
    Range quality 99.9 %
    Test CRC 0E2E5D0D
    Copy CRC 0E2E5D0D
    Copy OK
    No errors occurred
    AccurateRip summary
    Track 1 accurately ripped (confidence 44) [2C5A10C2] (AR v2)
    Track 2 accurately ripped (confidence 43) [47D3A761] (AR v2)
    Track 3 accurately ripped (confidence 43) [CDE6720A] (AR v2)
    Track 4 accurately ripped (confidence 44) [39E62D6F] (AR v2)
    Track 5 accurately ripped (confidence 44) [F9DE9B72] (AR v2)
    Track 6 accurately ripped (confidence 44) [F2E7A796] (AR v2)
    Track 7 accurately ripped (confidence 44) [43B90DFE] (AR v2)
    Track 8 accurately ripped (confidence 44) [9B97ADB1] (AR v2)
    Track 9 accurately ripped (confidence 43) [15574A42] (AR v2)
    Track 10 accurately ripped (confidence 44) [780B977B] (AR v2)
    Track 11 accurately ripped (confidence 43) [3250FB14] (AR v2)
    Track 12 accurately ripped (confidence 43) [4395FA0F] (AR v2)
    Track 13 accurately ripped (confidence 44) [CEC4BA10] (AR v2)
    All tracks accurately ripped
    End of status report
    ---- CUETools DB Plugin V2.1.6
    [CTDB TOCID: eBf2pxk35AkBy4wTDC3qvJtJ1TI-] found
    Submit result: eBf2pxk35AkBy4wTDC3qvJtJ1TI- has been confirmed
    Track | CTDB Status
    1 | (118/119) Accurately ripped
    2 | (119/119) Accurately ripped
    3 | (119/119) Accurately ripped
    4 | (119/119) Accurately ripped
    5 | (119/119) Accurately ripped
    6 | (119/119) Accurately ripped
    7 | (118/119) Accurately ripped
    8 | (119/119) Accurately ripped
    9 | (119/119) Accurately ripped
    10 | (119/119) Accurately ripped
    11 | (119/119) Accurately ripped
    12 | (119/119) Accurately ripped
    13 | (119/119) Accurately ripped
    ==== Log checksum E136F276583204EF61B17AFDB7F4B93134722B2E3668E8B1FAF78F4B4FABFA44 ====


    Emigrate - 3 Albums, 3 Singles (2007-2018) 6CD [FLAC|Lossless|image + .cue|tracks + .cue] <Alternative Metal, Industrial Rock, Industrial Metal>
    Рейтинг →
     (голосов: 1, оценка 3/5, голосовать можно 1 раз )

    Другие торренты по теме:

  • Emigrate - Silent So Long (2014) [FLAC|Lossless]<Industrial Metal> скачать через торрент бесплатно
  • Emigrate (Richard Kruspe of Rammstein) - A Million Degrees (2018) [MP3|320 kbps] <Alternative Metal>
  • Emigrate - A Million Degrees (2018) [FLAC|Lossless|WEB-DL|tracks] <Alternative Metal, Industrial Rock, Industrial Metal>


    • Комментарии (0):

      Информация

      Информация

        Посетители, находящиеся в группе Гости, не могут оставлять комментарии в данной новости.

        ↓ Меню




        ↓ Опрос

        Вы добавили сайт в закладки?
        Да
        Нет


        Популярное

        ДиДюЛя - 17 альбомов (2000-2017) дискография [MP3|320 кб / с] <Фолк,Фламенко,Фьюжн>

        (скачиваний: 154)
        Чиж & Co - Коллекция легендарных песен (2014) [MP3|320 кб / с]<Rock> скачать через торрент бесплатно

        (скачиваний: 140)
        Стас Намин и Группа ЦВЕТЫ - 40 лет (Полная версия концерта) - Crocus Hall (Live) (2010) HDTVRip [AVC / H.264, 1080p]

        (скачиваний: 102)
        VA - Большая коллекция клипов в авто (2DIN) (2000-2016) SATRip

        (скачиваний: 100)
        The Beatles - Collection of video clips (1964-1983) HDTV [720p] скачать через торрент бесплатно

        (скачиваний: 52)
        Дима Билан - 12 альбомов, 4 сингла (2003 - 2017) [MP3|320 Kbps] <Pop>

        (скачиваний: 47)
        Александр Марцинкевич и группа Кабриолет - Лучших 50 песен (2016) Compilation [FLAC|Lossless|WEB-DL|tracks] <Chanson>

        (скачиваний: 43)
        Голубой огонек - "В первый час..." (1965) SATRip [H.264] [colourization] скачать через торрент бесплатно

        (скачиваний: 41)
        Канцлер Ги - 17 альбомов (2002-2017) [MP3|97-320 kbps]<Нео-Фолк / блюз>

        (скачиваний: 36)
        Демис Руссос - Лучшее (2010) 4CD [MP3|320 кб / с]<Pop>

        (скачиваний: 36)