.
Авторизация | Регистрация
bitok.xyz
» » Larry Clinton & His Orchestra - The Uncollected 1937 - 1938 (1977) Hindsight Records [FLAC|Lossless|tracks + .cue] <Swing, Big Band> торрент скачать бесплатно


    Larry Clinton & His Orchestra - The Uncollected 1937 - 1938 (1977) Hindsight Records [FLAC|Lossless|tracks + .cue] <Swing, Big Band> торрент скачать бесплатно

    Дата: 24-12-2019, 05:00 | .torrent скачали: 1

    Larry Clinton & His Orchestra - The Uncollected 1937 - 1938 (1977) Hindsight Records [FLAC|Lossless|tracks + .cue] &ltSwing, Big Band>Жанр: Swing, Big Band
    Издание: Hindsight Records - HCD-109
    Продолжительность: 00: 48: 57
    Кодек: FLAC (tracks+.cue)
    Битрейт: Lossless
    Источник (релизер): Musicgate
    Страна-производитель диска: USA
    Наличие сканов в содержимом раздачи: да

    Треклист

    01. Dipsy Doodle 3: 04
    02. Glen Island Hop 3: 14
    03. Whistle While You Work 2: 59
    04. Let\'er Go 2: 19
    05. Hollywood Pastime 3: 08
    06. Where In The World 2: 53
    07. Chris And His Gang 2: 41
    08. Zig Zag 3: 32
    09. Feeling Like A Dream 3: 22
    10. Saving Myself For You 2: 49
    11. Remember 2: 47
    12. I Double Dare You 2: 50
    13. Martha 3: 24
    14. Sugarfoot Stomp 3: 37
    15. You Go To My Head 3: 43
    16. I Want To Rock 2: 37
    Exact Audio Copy V1.3 from 2. September 2016
    EAC extraction logfile from 6. November 2019, 7: 34
    Larry Clinton His Orchestra/1937-1938 - The Uncollected
    Used drive : HL-DT-STDVDRAM GSA-T50N Adapter: 1 ID: 0
    Read mode : Secure
    Utilize accurate stream : Yes
    Defeat audio cache : Yes
    Make use of C2 pointers : No
    Read offset correction : 667
    Overread into Lead-In and Lead-Out : No
    Fill up missing offset samples with silence : Yes
    Delete leading and trailing silent blocks : No
    Null samples used in CRC calculations : Yes
    Used interface : Native Win32 interface for Win NT 2000
    Gap handling : Appended to previous track
    Used output format : User Defined Encoder
    Selected bitrate : 1024 kBit/s
    Quality : High
    Add ID3 tag : No
    Command line compressor : C: Program FilesExact Audio CopyFlacflac.exe
    Additional command line options : -V -8 -T Genre=%genre% -T Artist=%artist% -T Title=%title% -T Album=%albumtitle% -T Date=%year% -T Tracknumber=%tracknr% %source% -o %dest%
    TOC of the extracted CD
    Track | Start | Length | Start sector | End sector
    ---------------------------------------------------------
    1 | 0: 00.00 | 3: 03.67 | 0 | 13791
    2 | 3: 03.67 | 3: 13.43 | 13792 | 28309
    3 | 6: 17.35 | 2: 58.47 | 28310 | 41706
    4 | 9: 16.07 | 2: 18.58 | 41707 | 52114
    5 | 11: 34.65 | 3: 07.40 | 52115 | 66179
    6 | 14: 42.30 | 2: 52.50 | 66180 | 79129
    7 | 17: 35.05 | 2: 41.30 | 79130 | 91234
    8 | 20: 16.35 | 3: 31.65 | 91235 | 107124
    9 | 23: 48.25 | 3: 22.02 | 107125 | 122276
    10 | 27: 10.27 | 2: 48.65 | 122277 | 134941
    11 | 29: 59.17 | 2: 46.60 | 134942 | 147451
    12 | 32: 46.02 | 2: 50.10 | 147452 | 160211
    13 | 35: 36.12 | 3: 23.45 | 160212 | 175481
    14 | 38: 59.57 | 3: 37.33 | 175482 | 191789
    15 | 42: 37.15 | 3: 43.15 | 191790 | 208529
    16 | 46: 20.30 | 2: 36.67 | 208530 | 220296
    Track 1
    Filename C: musicMG ripsLarry Clinton His Orchestra - 1937-1938 - The Uncollected - 1977 (Hindsight) FLAC1 - Dipsy Doodle.wav
    Pre-gap length 0: 00: 02.00
    Peak level 63.9 %
    Extraction speed 1.9 X
    Track quality 99.9 %
    Test CRC 10264A56
    Copy CRC 10264A56
    Accurately ripped (confidence 1) 8579DC24 (AR v1)
    Copy OK
    Track 2
    Filename C: musicMG ripsLarry Clinton His Orchestra - 1937-1938 - The Uncollected - 1977 (Hindsight) FLAC2 - Glen Island Hop.wav
    Peak level 61.4 %
    Extraction speed 2.5 X
    Track quality 100.0 %
    Test CRC B5F47EE4
    Copy CRC B5F47EE4
    Accurately ripped (confidence 1) 11B4AE2C (AR v1)
    Copy OK
    Track 3
    Filename C: musicMG ripsLarry Clinton His Orchestra - 1937-1938 - The Uncollected - 1977 (Hindsight) FLAC3 - Whistle While You Work.wav
    Peak level 64.2 %
    Extraction speed 2.2 X
    Track quality 99.9 %
    Test CRC 1D90C47E
    Copy CRC 1D90C47E
    Accurately ripped (confidence 1) 46337D08 (AR v1)
    Copy OK
    Track 4
    Filename C: musicMG ripsLarry Clinton His Orchestra - 1937-1938 - The Uncollected - 1977 (Hindsight) FLAC4 - Let\'er Go.wav
    Pre-gap length 0: 00: 01.55
    Peak level 71.9 %
    Extraction speed 2.2 X
    Track quality 99.9 %
    Test CRC 12F9298B
    Copy CRC 12F9298B
    Accurately ripped (confidence 1) 7E6CEE66 (AR v1)
    Copy OK
    Track 5
    Filename C: musicMG ripsLarry Clinton His Orchestra - 1937-1938 - The Uncollected - 1977 (Hindsight) FLAC5 - Hollywood Pastime.wav
    Pre-gap length 0: 00: 01.58
    Peak level 85.9 %
    Extraction speed 2.5 X
    Track quality 99.9 %
    Test CRC CD9211FE
    Copy CRC CD9211FE
    Accurately ripped (confidence 1) 212CA73F (AR v1)
    Copy OK
    Track 6
    Filename C: musicMG ripsLarry Clinton His Orchestra - 1937-1938 - The Uncollected - 1977 (Hindsight) FLAC6 - Where In The World.wav
    Pre-gap length 0: 00: 02.10
    Peak level 53.3 %
    Extraction speed 3.1 X
    Track quality 100.0 %
    Test CRC B7B30491
    Copy CRC B7B30491
    Accurately ripped (confidence 1) 2D337EEE (AR v1)
    Copy OK
    Track 7
    Filename C: musicMG ripsLarry Clinton His Orchestra - 1937-1938 - The Uncollected - 1977 (Hindsight) FLAC7 - Chris And His Gang.wav
    Pre-gap length 0: 00: 01.15
    Peak level 66.0 %
    Extraction speed 3.2 X
    Track quality 100.0 %
    Test CRC C9023887
    Copy CRC C9023887
    Accurately ripped (confidence 1) DD71A29C (AR v1)
    Copy OK
    Track 8
    Filename C: musicMG ripsLarry Clinton His Orchestra - 1937-1938 - The Uncollected - 1977 (Hindsight) FLAC8 - Zig Zag.wav
    Pre-gap length 0: 00: 00.73
    Peak level 69.0 %
    Extraction speed 3.5 X
    Track quality 100.0 %
    Test CRC B86B70EC
    Copy CRC B86B70EC
    Accurately ripped (confidence 1) 308BA498 (AR v1)
    Copy OK
    Track 9
    Filename C: musicMG ripsLarry Clinton His Orchestra - 1937-1938 - The Uncollected - 1977 (Hindsight) FLAC9 - Feeling Like A Dream.wav
    Pre-gap length 0: 00: 01.30
    Peak level 65.8 %
    Extraction speed 3.5 X
    Track quality 100.0 %
    Test CRC 87F51275
    Copy CRC 87F51275
    Accurately ripped (confidence 1) 1A21AD90 (AR v1)
    Copy OK
    Track 10
    Filename C: musicMG ripsLarry Clinton His Orchestra - 1937-1938 - The Uncollected - 1977 (Hindsight) FLAC10 - Saving Myself For You.wav
    Pre-gap length 0: 00: 01.02
    Peak level 78.0 %
    Extraction speed 3.5 X
    Track quality 100.0 %
    Test CRC 8E4E9DEB
    Copy CRC 8E4E9DEB
    Accurately ripped (confidence 1) 7C8E6CB1 (AR v1)
    Copy OK
    Track 11
    Filename C: musicMG ripsLarry Clinton His Orchestra - 1937-1938 - The Uncollected - 1977 (Hindsight) FLAC11 - Remember.wav
    Pre-gap length 0: 00: 00.67
    Peak level 85.3 %
    Extraction speed 3.7 X
    Track quality 100.0 %
    Test CRC A53F0129
    Copy CRC A53F0129
    Accurately ripped (confidence 1) 393869BB (AR v1)
    Copy OK
    Track 12
    Filename C: musicMG ripsLarry Clinton His Orchestra - 1937-1938 - The Uncollected - 1977 (Hindsight) FLAC12 - I Double Dare You.wav
    Pre-gap length 0: 00: 00.65
    Peak level 71.0 %
    Extraction speed 3.8 X
    Track quality 100.0 %
    Test CRC 1952AF22
    Copy CRC 1952AF22
    Accurately ripped (confidence 1) 1AD70C25 (AR v1)
    Copy OK
    Track 13
    Filename C: musicMG ripsLarry Clinton His Orchestra - 1937-1938 - The Uncollected - 1977 (Hindsight) FLAC13 - Martha.wav
    Pre-gap length 0: 00: 01.00
    Peak level 71.8 %
    Extraction speed 4.1 X
    Track quality 100.0 %
    Test CRC 9D08657C
    Copy CRC 9D08657C
    Accurately ripped (confidence 1) 8464FD21 (AR v1)
    Copy OK
    Track 14
    Filename C: musicMG ripsLarry Clinton His Orchestra - 1937-1938 - The Uncollected - 1977 (Hindsight) FLAC14 - Sugarfoot Stomp.wav
    Pre-gap length 0: 00: 01.17
    Peak level 90.5 %
    Extraction speed 3.7 X
    Track quality 99.9 %
    Test CRC A8065B1C
    Copy CRC A8065B1C
    Accurately ripped (confidence 1) 5C0FFDBE (AR v1)
    Copy OK
    Track 15
    Filename C: musicMG ripsLarry Clinton His Orchestra - 1937-1938 - The Uncollected - 1977 (Hindsight) FLAC15 - You Go To My Head.wav
    Peak level 68.0 %
    Extraction speed 4.4 X
    Track quality 100.0 %
    Test CRC 289B1994
    Copy CRC 289B1994
    Accurately ripped (confidence 1) 231B1A92 (AR v1)
    Copy OK
    Track 16
    Filename C: musicMG ripsLarry Clinton His Orchestra - 1937-1938 - The Uncollected - 1977 (Hindsight) FLAC16 - I Want To Rock.wav
    Peak level 55.0 %
    Extraction speed 4.2 X
    Track quality 100.0 %
    Test CRC 003D96B4
    Copy CRC 003D96B4
    Accurately ripped (confidence 1) A1E3162B (AR v1)
    Copy OK
    All tracks accurately ripped
    No errors occurred
    End of status report
    ==== Log checksum AE248B40F4FF1ED1DA977996F518B41103D81EE1BE80AA96E836B26A45E02087 ====



    Поглощение/вытеснение
    Только с согласия релизера

    gvm55
    Время раздачи: c 15: 00 до 22: 00 (до появления первых 3-5 скачавших)

    Larry Clinton & His Orchestra - The Uncollected 1937 - 1938 (1977) Hindsight Records [FLAC|Lossless|tracks + .cue] <Swing, Big Band>
    Рейтинг →
     (голосов: 1, оценка 3/5, голосовать можно 1 раз )

    Другие торренты по теме:

  • Larry Miller - Larry Miller (2016) [FLAC|Lossless|image + .cue] <Blues Rock>
  • Народ против Ларри Флинта / The People vs. Larry Flynt (1996) BDRip [h.264]
  • Народ против Ларри Флинта (The People vs. Larry Flynt) (1996) [MP4 | 1280x534] <BDRip H.264>
  • Larry Young - Contrasts (2014) [FLAC|Lossless]<Jazz, Hard Bop, Soul, Jazz Funk>
  • Larry Young - Lawrence Of Newark (2002) [FLAC|Lossless]<Jazz, Hard Bop, Soul, Jazz Funk> скачать через торрент бесплатно
  • Leisure Suit Larry: Box Office Bust (2009) [PS3] [USA] 2.60 [Cobra ODE / E3 ODE PRO ISO] [License] [En / Multi] скачать через торрент бесплатно
  • Larry Young - Into Somethin (2014) [FLAC|Lossless]<Jazz, Hard Bop, Soul Jazz> скачать через торрент бесплатно
  • Larry Young - Unity (2014) [FLAC|Lossless]<Jazz, Hard Bop, Soul Jazz> скачать через торрент бесплатно


    • Комментарии (0):

      Информация

      Информация

        Посетители, находящиеся в группе Гости, не могут оставлять комментарии в данной новости.

        ↓ Меню




        ↓ Опрос

        Вы добавили сайт в закладки?
        Да
        Нет


        Популярное

        Чиж & Co - Коллекция легендарных песен (2014) [MP3|320 кб / с]<Rock> скачать через торрент бесплатно

        (скачиваний: 196)
        ДиДюЛя - 17 альбомов (2000-2017) дискография [MP3|320 кб / с] <Фолк,Фламенко,Фьюжн>

        (скачиваний: 191)
        VA - Большая коллекция клипов в авто (2DIN) (2000-2016) SATRip

        (скачиваний: 115)
        Стас Намин и Группа ЦВЕТЫ - 40 лет (Полная версия концерта) - Crocus Hall (Live) (2010) HDTVRip [AVC / H.264, 1080p]

        (скачиваний: 109)
        Дима Билан - 12 альбомов, 4 сингла (2003 - 2017) [MP3|320 Kbps] <Pop>

        (скачиваний: 66)
        Александр Марцинкевич и группа Кабриолет - Лучших 50 песен (2016) Compilation [FLAC|Lossless|WEB-DL|tracks] <Chanson>

        (скачиваний: 62)
        The Beatles - Collection of video clips (1964-1983) HDTV [720p] скачать через торрент бесплатно

        (скачиваний: 61)
        Квартирник у Маргулиса. 10 выпуск. Варвара Визбор (2016) WEBRip

        (скачиваний: 55)
        Канцлер Ги - 17 альбомов (2002-2017) [MP3|97-320 kbps]<Нео-Фолк / блюз>

        (скачиваний: 50)
        Голубой огонек - "В первый час..." (1965) SATRip [H.264] [colourization] скачать через торрент бесплатно

        (скачиваний: 42)