.
Авторизация | Регистрация
bitok.xyz
» » Cicada (Taiwan) - Discography 10 Releases (2010-2019) White Wabbit, Dear Musik, flau [FLAC|Lossless|tracks+.cue, tracks] <Modern Classical, Chamber Music, Instrumental> торрент скачать бесплатно


    Cicada (Taiwan) - Discography 10 Releases (2010-2019) White Wabbit, Dear Musik, flau [FLAC|Lossless|tracks+.cue, tracks] <Modern Classical, Chamber Music, Instrumental> торрент скачать бесплатно

    Дата: 24-12-2019, 05:00 | .torrent скачали: 0

    Cicada (Taiwan) - Discography 10 Releases (2010-2019) White Wabbit, Dear Musik, flau [FLAC|Lossless|tracks+.cue, tracks] &ltModern Classical, Chamber Music, Instrumental>Год выпуска : 2010
    Продолжительноcть : 00: 30: 33
    Треклист :
    01. 浮游在海上的島嶼/潛沉於水下的人們 Over the Sea/Under the Water (6: 42)
    02. 用羽毛織出一條淡藍色的小徑 Fly (2: 44)
    03. 竹圍小貓 The Stray Cat In Zhuwei (5: 32)
    04. 以一種假裝放蕩的矜持 與你告別 Farewell (In A Pretentious Way) (6: 00)
    05. 告別/再見 Till the Day we Meet (5: 41)
    06. 最後 仍在一起 Finally...we\'re still together (3: 54)
    -----------------------
    DON\'T MODIFY THIS FILE
    -----------------------
    PERFORMER: auCDtect Task Manager, ver. 1.6.0 RC1 build 1.6.0.1
    Copyright (c) 2008-2010 y-soft. All rights reserved
    http://y-soft.org
    ANALYZER: auCDtect: CD records authenticity detector, version 0.8.2
    Copyright (c) 2004 Oleg Berngardt. All rights reserved.
    Copyright (c) 2004 Alexander Djourik. All rights reserved.
    FILE: 01 浮游在海上的島嶼/潛沉於水下的人們 - Over the Sea/Under the Water.flac
    Size: 41435283 Hash: A052075577339A3139435CCB6F450030 Accuracy: -m0
    Conclusion: CDDA 100%
    Signature: 41D97B1D977DDE9CBAAF831628E3D54351838EC2
    FILE: 02 用羽毛織出一條淡藍色的小徑 - Fly.flac
    Size: 17315430 Hash: A1CDC2504F4A139F5FCB13BD37C64C39 Accuracy: -m0
    Conclusion: CDDA 99%
    Signature: 2FA83B2486B219DC52969A9E15FEFC5D265FFF19
    FILE: 03 竹圍小貓 - The Stray Cat In Zhuwei.flac
    Size: 31214970 Hash: 21ABD8E4C9E729D704961F29DCF734A1 Accuracy: -m0
    Conclusion: CDDA 99%
    Signature: 2D348CCABE5B0E1BDEC6E8385CBD651040122568
    FILE: 04 以一種假裝放蕩的矜持 與你告別 - Farewell (In A Pretentious Way).flac
    Size: 33861116 Hash: 3C4BB6D1DF61BCF67387A0C9B3124333 Accuracy: -m0
    Conclusion: CDDA 100%
    Signature: A1C53F68EF09DDBC351069328DA27D882E8F982A
    FILE: 05 告別/再見 - Till the Day we Meet.flac
    Size: 32742132 Hash: C3498131231BBF2595EBEC874989E8AD Accuracy: -m0
    Conclusion: CDDA 100%
    Signature: A2E5F305EC5A2C8474593B589E5836DEDA03E5BD
    FILE: 06 最後 仍在一起 - Finally... we\'re Still Together.flac
    Size: 22909715 Hash: 19855B481579B2A897BE8C9F886FE5F5 Accuracy: -m0
    Conclusion: CDDA 100%
    Signature: 559D5DF764E43892ADC2E5E85959E124FAF13C5F
    Год выпуска : 2011
    Продолжительноcть : 00: 38: 43
    Треклист :
    01. 一起之後... Happily Ever After? (2: 08)
    02. 陽光下 你燦爛地笑 Sunshine Smile (4: 06)
    03. 散落的時光 Pieces (5: 03)
    04. 失溫 Fading Affection (4: 42)
    05. 你再也讀不出我任何慾望 Encrypted Desire (3: 01)
    06. 能說的不多了 No Words (3: 47)
    07. 晨霧 Drowning in the Fog of Yours (4: 21)
    08. 掙脫 Breakaway (3: 58)
    09. 湖面的盡頭 Lake\'s End (7: 37)
    X Lossless Decoder version 20120609 (141.0)
    XLD extraction logfile from 2012-08-25 02: 25: 50 -0500
    Cicada/Pieces
    Used drive : HL-DT-ST DVDRW GX30N (revision RP09)
    Ripper mode : CDParanoia III 10.2
    Disable audio cache : OK for the drive with a cache less than 2750KiB
    Make use of C2 pointers : NO
    Read offset correction : 6
    Max retry count : 20
    Gap status : Analyzed, Appended (except HTOA)
    TOC of the extracted CD
    Track | Start | Length | Start sector | End sector
    ---------------------------------------------------------
    1 | 00: 00: 00 | 02: 08: 25 | 0 | 9624
    2 | 02: 08: 25 | 04: 06: 20 | 9625 | 28094
    3 | 06: 14: 45 | 05: 02: 59 | 28095 | 50803
    4 | 11: 17: 29 | 04: 41: 62 | 50804 | 71940
    5 | 15: 59: 16 | 03: 00: 68 | 71941 | 85508
    6 | 19: 00: 09 | 03: 46: 65 | 85509 | 102523
    7 | 22: 46: 74 | 04: 21: 28 | 102524 | 122126
    8 | 27: 08: 27 | 03: 57: 51 | 122127 | 139952
    9 | 31: 06: 03 | 07: 36: 41 | 139953 | 174193
    AccurateRip Summary (DiscID: 000bf984-0059a800-77091209)
    Track 01 : Not Found
    Track 02 : Not Found
    Track 03 : Not Found
    Track 04 : Not Found
    Track 05 : Not Found
    Track 06 : Not Found
    Track 07 : Not Found
    Track 08 : Not Found
    Track 09 : Not Found
    -0 track accurately ripped, 9 tracks not found
    All Tracks
    Album gain : -6.86 dB
    Peak : 0.988617
    Statistics
    Read error : 0
    Skipped (treated as error) : 0
    Edge jitter error (maybe fixed) : 0
    Atom jitter error (maybe fixed) : 0
    Drift error (maybe fixed) : 0
    Dropped bytes error (maybe fixed) : 0
    Duplicated bytes error (maybe fixed) : 0
    Track 01
    Filename : /Volumes/Nano/Users/jou/Music/what.cd /Cicada (2011) Pieces FLAC/01 - Happily Ever After?.flac
    Pre-gap length : 00: 02: 00
    Track gain : -6.70 dB
    Peak : 0.988434
    CRC32 hash (test run) : 1B3BC059
    CRC32 hash : 1B3BC059
    CRC32 hash (skip zero) : 60213506
    AccurateRip v1 signature : 5EC3231F
    AccurateRip v2 signature : 437182BE
    -Track not present in AccurateRip database.
    Statistics
    Read error : 0
    Skipped (treated as error) : 0
    Edge jitter error (maybe fixed) : 0
    Atom jitter error (maybe fixed) : 0
    Drift error (maybe fixed) : 0
    Dropped bytes error (maybe fixed) : 0
    Duplicated bytes error (maybe fixed) : 0
    Inconsistency in error sectors : 0
    Track 02
    Filename : /Volumes/Nano/Users/jou/Music/what.cd /Cicada (2011) Pieces FLAC/02 - Sunshine Smile.flac
    Track gain : -6.84 dB
    Peak : 0.988556
    CRC32 hash (test run) : BC120ECC
    CRC32 hash : BC120ECC
    CRC32 hash (skip zero) : 3DA4F8DB
    AccurateRip v1 signature : 0C6F4069
    AccurateRip v2 signature : D7CA5AAB
    -Track not present in AccurateRip database.
    Statistics
    Read error : 0
    Skipped (treated as error) : 0
    Edge jitter error (maybe fixed) : 0
    Atom jitter error (maybe fixed) : 0
    Drift error (maybe fixed) : 0
    Dropped bytes error (maybe fixed) : 0
    Duplicated bytes error (maybe fixed) : 0
    Inconsistency in error sectors : 0
    Track 03
    Filename : /Volumes/Nano/Users/jou/Music/what.cd /Cicada (2011) Pieces FLAC/03 - Pieces.flac
    Track gain : -7.12 dB
    Peak : 0.988586
    CRC32 hash (test run) : 13D3C4E2
    CRC32 hash : 13D3C4E2
    CRC32 hash (skip zero) : 9E8C4669
    AccurateRip v1 signature : CF435B23
    AccurateRip v2 signature : 57E8FE27
    -Track not present in AccurateRip database.
    Statistics
    Read error : 0
    Skipped (treated as error) : 0
    Edge jitter error (maybe fixed) : 0
    Atom jitter error (maybe fixed) : 0
    Drift error (maybe fixed) : 0
    Dropped bytes error (maybe fixed) : 0
    Duplicated bytes error (maybe fixed) : 0
    Inconsistency in error sectors : 0
    Track 04
    Filename : /Volumes/Nano/Users/jou/Music/what.cd /Cicada (2011) Pieces FLAC/04 - Fading Affection.flac
    Track gain : -6.70 dB
    Peak : 0.988586
    CRC32 hash (test run) : 4F5A4CCA
    CRC32 hash : 4F5A4CCA
    CRC32 hash (skip zero) : A2BBA26B
    AccurateRip v1 signature : 94189F66
    AccurateRip v2 signature : CAA08520
    -Track not present in AccurateRip database.
    Statistics
    Read error : 0
    Skipped (treated as error) : 0
    Edge jitter error (maybe fixed) : 0
    Atom jitter error (maybe fixed) : 0
    Drift error (maybe fixed) : 0
    Dropped bytes error (maybe fixed) : 0
    Duplicated bytes error (maybe fixed) : 0
    Inconsistency in error sectors : 0
    Track 05
    Filename : /Volumes/Nano/Users/jou/Music/what.cd /Cicada (2011) Pieces FLAC/05 - Encrypted Desire.flac
    Track gain : -5.84 dB
    Peak : 0.988525
    CRC32 hash (test run) : 2A7478EB
    CRC32 hash : 2A7478EB
    CRC32 hash (skip zero) : 1CB5E4B2
    AccurateRip v1 signature : B2BE4AE1
    AccurateRip v2 signature : 97B8E35D
    -Track not present in AccurateRip database.
    Statistics
    Read error : 0
    Skipped (treated as error) : 0
    Edge jitter error (maybe fixed) : 0
    Atom jitter error (maybe fixed) : 0
    Drift error (maybe fixed) : 0
    Dropped bytes error (maybe fixed) : 0
    Duplicated bytes error (maybe fixed) : 0
    Inconsistency in error sectors : 0
    Track 06
    Filename : /Volumes/Nano/Users/jou/Music/what.cd /Cicada (2011) Pieces FLAC/06 - No Words.flac
    Track gain : -7.13 dB
    Peak : 0.988556
    CRC32 hash (test run) : 476D3AE1
    CRC32 hash : 476D3AE1
    CRC32 hash (skip zero) : 813B04A4
    AccurateRip v1 signature : E262A249
    AccurateRip v2 signature : B4162111
    -Track not present in AccurateRip database.
    Statistics
    Read error : 0
    Skipped (treated as error) : 0
    Edge jitter error (maybe fixed) : 0
    Atom jitter error (maybe fixed) : 0
    Drift error (maybe fixed) : 0
    Dropped bytes error (maybe fixed) : 0
    Duplicated bytes error (maybe fixed) : 0
    Inconsistency in error sectors : 0
    Track 07
    Filename : /Volumes/Nano/Users/jou/Music/what.cd /Cicada (2011) Pieces FLAC/07 - Drowning in the Fog of Yours.flac
    Track gain : -6.25 dB
    Peak : 0.988617
    CRC32 hash (test run) : 10DB7EB2
    CRC32 hash : 10DB7EB2
    CRC32 hash (skip zero) : 36048D66
    AccurateRip v1 signature : 9FCF4742
    AccurateRip v2 signature : 829828C1
    -Track not present in AccurateRip database.
    Statistics
    Read error : 0
    Skipped (treated as error) : 0
    Edge jitter error (maybe fixed) : 0
    Atom jitter error (maybe fixed) : 0
    Drift error (maybe fixed) : 0
    Dropped bytes error (maybe fixed) : 0
    Duplicated bytes error (maybe fixed) : 0
    Inconsistency in error sectors : 0
    Track 08
    Filename : /Volumes/Nano/Users/jou/Music/what.cd /Cicada (2011) Pieces FLAC/08 - Breakaway.flac
    Track gain : -7.39 dB
    Peak : 0.988586
    CRC32 hash (test run) : AE1622E4
    CRC32 hash : AE1622E4
    CRC32 hash (skip zero) : 597BD548
    AccurateRip v1 signature : 6F7C31B6
    AccurateRip v2 signature : AA5948B8
    -Track not present in AccurateRip database.
    Statistics
    Read error : 0
    Skipped (treated as error) : 0
    Edge jitter error (maybe fixed) : 0
    Atom jitter error (maybe fixed) : 0
    Drift error (maybe fixed) : 0
    Dropped bytes error (maybe fixed) : 0
    Duplicated bytes error (maybe fixed) : 0
    Inconsistency in error sectors : 0
    Track 09
    Filename : /Volumes/Nano/Users/jou/Music/what.cd /Cicada (2011) Pieces FLAC/09 - Lake\'s End.flac
    Track gain : -6.35 dB
    Peak : 0.988586
    CRC32 hash (test run) : 69354585
    CRC32 hash : 69354585
    CRC32 hash (skip zero) : 8AF3BA23
    AccurateRip v1 signature : 5221320C
    AccurateRip v2 signature : CB9A5A64
    -Track not present in AccurateRip database.
    Statistics
    Read error : 0
    Skipped (treated as error) : 0
    Edge jitter error (maybe fixed) : 0
    Atom jitter error (maybe fixed) : 0
    Drift error (maybe fixed) : 0
    Dropped bytes error (maybe fixed) : 0
    Duplicated bytes error (maybe fixed) : 0
    Inconsistency in error sectors : 0
    No errors occurred
    End of status report
    Год выпуска : 2012
    Продолжительноcть : 00: 22: 53
    Треклист :
    01. 下雨了 Drizzling (1: 10)
    02. 怎麼辦 What do I do? (2: 55)
    03. 就跟你說吧 Told You! (3: 02)
    04. 小水窪 Little Puddle (1: 27)
    05. 蹦蹦 boom boom (2: 12)
    06. 要去哪 Where to go? (2: 16)
    07. 天橋下有一張床 Floating over the Street (5: 01)
    08. 撿到五分鐘 Rainbow (1: 43)
    09. 我們到了 Here We Are! (3: 07)
    X Lossless Decoder version 20120908 (141.1)
    XLD extraction logfile from 2012-09-17 05: 38: 30 +0800
    Cicada/一起走吧
    Used drive : BUFFALO Optical Drive (revision 2.00)
    Ripper mode : CDParanoia III 10.2
    Disable audio cache : OK for the drive with a cache less than 2750KiB
    Make use of C2 pointers : NO
    Read offset correction : 6
    Max retry count : 20
    Gap status : Analyzed, Appended (except HTOA)
    TOC of the extracted CD
    Track | Start | Length | Start sector | End sector
    ---------------------------------------------------------
    1 | 00: 00: 00 | 01: 10: 01 | 0 | 5250
    2 | 01: 10: 01 | 02: 55: 35 | 5251 | 18410
    3 | 04: 05: 36 | 03: 02: 31 | 18411 | 32091
    4 | 07: 07: 67 | 01: 26: 69 | 32092 | 38610
    5 | 08: 34: 61 | 02: 11: 44 | 38611 | 48479
    6 | 10: 46: 30 | 02: 15: 73 | 48480 | 58677
    7 | 13: 02: 28 | 05: 01: 05 | 58678 | 81257
    8 | 18: 03: 33 | 01: 42: 41 | 81258 | 88948
    9 | 19: 45: 74 | 03: 06: 59 | 88949 | 102957
    AccurateRip Summary
    Disc not found in AccurateRip DB.
    All Tracks
    Album gain : -6.98 dB
    Peak : 1.000000
    Statistics
    Read error : 0
    Skipped (treated as error) : 0
    Edge jitter error (maybe fixed) : 0
    Atom jitter error (maybe fixed) : 0
    Drift error (maybe fixed) : 0
    Dropped bytes error (maybe fixed) : 0
    Duplicated bytes error (maybe fixed) : 0
    Track 01
    Filename : /Volumes/Nano/Users/jou/Music/what.cd /Cicada (2012) 一起走吧 FLAC/01 - 下雨了.flac
    Pre-gap length : 00: 02: 00
    Track gain : -5.23 dB
    Peak : 0.934723
    CRC32 hash (test run) : A0CB6EC7
    CRC32 hash : A0CB6EC7
    CRC32 hash (skip zero) : 838B48CA
    AccurateRip v1 signature : D7DA36C8
    AccurateRip v2 signature : 84D9639E
    -Track not present in AccurateRip database.
    Statistics
    Read error : 0
    Skipped (treated as error) : 0
    Edge jitter error (maybe fixed) : 0
    Atom jitter error (maybe fixed) : 0
    Drift error (maybe fixed) : 0
    Dropped bytes error (maybe fixed) : 0
    Duplicated bytes error (maybe fixed) : 0
    Inconsistency in error sectors : 0
    Track 02
    Filename : /Volumes/Nano/Users/jou/Music/what.cd /Cicada (2012) 一起走吧 FLAC/02 - 怎麼辦.flac
    Track gain : -5.68 dB
    Peak : 0.994324
    CRC32 hash (test run) : E74F149E
    CRC32 hash : E74F149E
    CRC32 hash (skip zero) : 32642BC2
    AccurateRip v1 signature : 08627DBF
    AccurateRip v2 signature : 9A59F5E3
    -Track not present in AccurateRip database.
    Statistics
    Read error : 0
    Skipped (treated as error) : 0
    Edge jitter error (maybe fixed) : 0
    Atom jitter error (maybe fixed) : 0
    Drift error (maybe fixed) : 0
    Dropped bytes error (maybe fixed) : 0
    Duplicated bytes error (maybe fixed) : 0
    Inconsistency in error sectors : 0
    Track 03
    Filename : /Volumes/Nano/Users/jou/Music/what.cd /Cicada (2012) 一起走吧 FLAC/03 - 就跟你說吧.flac
    Track gain : -6.84 dB
    Peak : 0.980011
    CRC32 hash (test run) : C7304C84
    CRC32 hash : C7304C84
    CRC32 hash (skip zero) : D4178CF7
    AccurateRip v1 signature : 0290E86C
    AccurateRip v2 signature : 413EFCB6
    -Track not present in AccurateRip database.
    Statistics
    Read error : 0
    Skipped (treated as error) : 0
    Edge jitter error (maybe fixed) : 0
    Atom jitter error (maybe fixed) : 0
    Drift error (maybe fixed) : 0
    Dropped bytes error (maybe fixed) : 0
    Duplicated bytes error (maybe fixed) : 0
    Inconsistency in error sectors : 0
    Track 04
    Filename : /Volumes/Nano/Users/jou/Music/what.cd /Cicada (2012) 一起走吧 FLAC/04 - 小水窪.flac
    Track gain : -7.61 dB
    Peak : 0.999969
    CRC32 hash (test run) : 62F2D5A9
    CRC32 hash : 62F2D5A9
    CRC32 hash (skip zero) : BFA61BC5
    AccurateRip v1 signature : 3AD33666
    AccurateRip v2 signature : CFECA80E
    -Track not present in AccurateRip database.
    Statistics
    Read error : 0
    Skipped (treated as error) : 0
    Edge jitter error (maybe fixed) : 0
    Atom jitter error (maybe fixed) : 0
    Drift error (maybe fixed) : 0
    Dropped bytes error (maybe fixed) : 0
    Duplicated bytes error (maybe fixed) : 0
    Inconsistency in error sectors : 0
    Track 05
    Filename : /Volumes/Nano/Users/jou/Music/what.cd /Cicada (2012) 一起走吧 FLAC/05 - 蹦蹦.flac
    Track gain : -8.52 dB
    Peak : 1.000000
    CRC32 hash (test run) : DF2A7120
    CRC32 hash : DF2A7120
    CRC32 hash (skip zero) : AEB238C9
    AccurateRip v1 signature : 66FE5B02
    AccurateRip v2 signature : F93C438C
    -Track not present in AccurateRip database.
    Statistics
    Read error : 0
    Skipped (treated as error) : 0
    Edge jitter error (maybe fixed) : 0
    Atom jitter error (maybe fixed) : 0
    Drift error (maybe fixed) : 0
    Dropped bytes error (maybe fixed) : 0
    Duplicated bytes error (maybe fixed) : 0
    Inconsistency in error sectors : 0
    Track 06
    Filename : /Volumes/Nano/Users/jou/Music/what.cd /Cicada (2012) 一起走吧 FLAC/06 - 要去哪.flac
    Track gain : -5.61 dB
    Peak : 0.957275
    CRC32 hash (test run) : 983ABE57
    CRC32 hash : 983ABE57
    CRC32 hash (skip zero) : 91426CDB
    AccurateRip v1 signature : 701B5D4E
    AccurateRip v2 signature : 39CF70D4
    -Track not present in AccurateRip database.
    Statistics
    Read error : 0
    Skipped (treated as error) : 0
    Edge jitter error (maybe fixed) : 0
    Atom jitter error (maybe fixed) : 0
    Drift error (maybe fixed) : 0
    Dropped bytes error (maybe fixed) : 0
    Duplicated bytes error (maybe fixed) : 0
    Inconsistency in error sectors : 0
    Track 07
    Filename : /Volumes/Nano/Users/jou/Music/what.cd /Cicada (2012) 一起走吧 FLAC/07 - 天橋下有一張床.flac
    Track gain : -5.68 dB
    Peak : 0.999969
    CRC32 hash (test run) : A57C93D6
    CRC32 hash : A57C93D6
    CRC32 hash (skip zero) : 6A47E9A9
    AccurateRip v1 signature : 9E6D4C0C
    AccurateRip v2 signature : 3C3F7C03
    -Track not present in AccurateRip database.
    Statistics
    Read error : 0
    Skipped (treated as error) : 0
    Edge jitter error (maybe fixed) : 0
    Atom jitter error (maybe fixed) : 0
    Drift error (maybe fixed) : 0
    Dropped bytes error (maybe fixed) : 0
    Duplicated bytes error (maybe fixed) : 0
    Inconsistency in error sectors : 0
    Track 08
    Filename : /Volumes/Nano/Users/jou/Music/what.cd /Cicada (2012) 一起走吧 FLAC/08 - 撿到五分鐘.flac
    Track gain : -0.86 dB
    Peak : 0.999969
    CRC32 hash (test run) : DB4F9F95
    CRC32 hash : DB4F9F95
    CRC32 hash (skip zero) : BAC2EDA4
    AccurateRip v1 signature : FB32F7D6
    AccurateRip v2 signature : C6DC4ADC
    -Track not present in AccurateRip database.
    Statistics
    Read error : 0
    Skipped (treated as error) : 0
    Edge jitter error (maybe fixed) : 0
    Atom jitter error (maybe fixed) : 0
    Drift error (maybe fixed) : 0
    Dropped bytes error (maybe fixed) : 0
    Duplicated bytes error (maybe fixed) : 0
    Inconsistency in error sectors : 0
    Track 09
    Filename : /Volumes/Nano/Users/jou/Music/what.cd /Cicada (2012) 一起走吧 FLAC/09 - 我們到了.flac
    Pre-gap length : 00: 01: 07
    Track gain : -7.71 dB
    Peak : 1.000000
    CRC32 hash (test run) : C4472BDA
    CRC32 hash : C4472BDA
    CRC32 hash (skip zero) : 67D0A6D0
    AccurateRip v1 signature : B759863C
    AccurateRip v2 signature : 5B0638DF
    -Track not present in AccurateRip database.
    Statistics
    Read error : 0
    Skipped (treated as error) : 0
    Edge jitter error (maybe fixed) : 0
    Atom jitter error (maybe fixed) : 0
    Drift error (maybe fixed) : 0
    Dropped bytes error (maybe fixed) : 0
    Duplicated bytes error (maybe fixed) : 0
    Inconsistency in error sectors : 0
    No errors occurred
    End of status report
    Год выпуска : 2013
    Продолжительноcть : 00: 38: 45
    Треклист :
    01. 沿著風與沙 Flying Snads (1: 25)
    02. 當羣鳥掠過天邊 Flapping Wings (6: 10)
    03. 在海與土地之間 Close to Wetland (5: 32)
    04. 那些逝者彎曲的倒影 Withered Reflection (1: 22)
    05. 當叢花毅然綻放 Blooms in Dark (8: 37)
    06. 匯流向海 into the Ocean (8: 50)
    07. 浮游在海上的島嶼/潛沉於水下的人們 Over the Sea/Under the Water (6: 49)
    Exact Audio Copy V1.0 beta 3 from 29. August 2011
    EAC extraction logfile from 10. September 2013, 17: 41
    Cicada/邊境消逝 Coastland
    Used drive : HL-DT-STBDDVDRW CH08LS10 Adapter: 2 ID: 1
    Read mode : Secure
    Utilize accurate stream : Yes
    Defeat audio cache : Yes
    Make use of C2 pointers : No
    Read offset correction : 667
    Overread into Lead-In and Lead-Out : No
    Fill up missing offset samples with silence : Yes
    Delete leading and trailing silent blocks : No
    Null samples used in CRC calculations : Yes
    Used interface : Native Win32 interface for Win NT 2000
    Gap handling : Appended to previous track
    Used output format : User Defined Encoder
    Selected bitrate : 896 kBit/s
    Quality : High
    Add ID3 tag : Yes
    Command line compressor : C: Program Files (x86)FLACflac.exe
    Additional command line options : -8 -V -T ARTIST=%artist% -T TITLE=%title% -T ALBUM=%albumtitle% -T DATE=%year% -T TRACKNUMBER=%tracknr% -T GENRE=%genre% -T PERFORMER=%albuminterpret% -T COMPOSER=%composer% %haslyrics%--tag-from-file=LYRICS=%lyricsfile%%haslyrics% -T ALBUMARTIST=%albumartist% -T DISCNUMBER=%cdnumber% -T TOTALDISCS=%totalcds% -T TOTALTRACKS=%numtracks% -T COMMENT=%comment% %source% -o %dest%
    TOC of the extracted CD
    Track | Start | Length | Start sector | End sector
    ---------------------------------------------------------
    1 | 0: 00.00 | 1: 25.08 | 0 | 6382
    2 | 1: 25.08 | 6: 10.20 | 6383 | 34152
    3 | 7: 35.28 | 5: 32.27 | 34153 | 59079
    4 | 13: 07.55 | 1: 21.45 | 59080 | 65199
    5 | 14: 29.25 | 8: 37.23 | 65200 | 103997
    6 | 23: 06.48 | 8: 50.34 | 103998 | 143781
    7 | 31: 57.07 | 6: 49.02 | 143782 | 174458
    Track 1
    Filename C: Cicada - 邊境消逝 Coastland1 - 沿著風與沙 Flying Snads.wav
    Pre-gap length 0: 00: 02.00
    Peak level 72.9 %
    Extraction speed 0.9 X
    Track quality 100.0 %
    Test CRC E5924D85
    Copy CRC E5924D85
    Track not present in AccurateRip database
    Copy OK
    Track 2
    Filename C: Cicada - 邊境消逝 Coastland2 - 當羣鳥掠過天邊 Flapping Wings.wav
    Pre-gap length 0: 00: 02.00
    Peak level 86.4 %
    Extraction speed 1.4 X
    Track quality 100.0 %
    Test CRC 41A0FC5D
    Copy CRC 41A0FC5D
    Track not present in AccurateRip database
    Copy OK
    Track 3
    Filename C: Cicada - 邊境消逝 Coastland3 - 在海與土地之間 Close to Wetland.wav
    Pre-gap length 0: 00: 02.00
    Peak level 89.1 %
    Extraction speed 1.5 X
    Track quality 99.9 %
    Test CRC BC84B445
    Copy CRC BC84B445
    Track not present in AccurateRip database
    Copy OK
    Track 4
    Filename C: Cicada - 邊境消逝 Coastland4 - 那些逝者彎曲的倒影 Withered Reflection.wav
    Pre-gap length 0: 00: 02.00
    Peak level 77.2 %
    Extraction speed 1.3 X
    Track quality 100.0 %
    Test CRC FD6AFB17
    Copy CRC FD6AFB17
    Track not present in AccurateRip database
    Copy OK
    Track 5
    Filename C: Cicada - 邊境消逝 Coastland5 - 當叢花毅然綻放 Blooms in Dark.wav
    Pre-gap length 0: 00: 02.00
    Peak level 88.4 %
    Extraction speed 1.9 X
    Track quality 100.0 %
    Test CRC 58CCD806
    Copy CRC 58CCD806
    Track not present in AccurateRip database
    Copy OK
    Track 6
    Filename C: Cicada - 邊境消逝 Coastland6 - 匯流向海 into the Ocean.wav
    Pre-gap length 0: 00: 02.00
    Peak level 99.9 %
    Extraction speed 2.1 X
    Track quality 100.0 %
    Test CRC 2D3BF062
    Copy CRC 2D3BF062
    Track not present in AccurateRip database
    Copy OK
    Track 7
    Filename C: Cicada - 邊境消逝 Coastland7 - 浮游在海上的島嶼/潛沉於水下的人們 Over the Sea-Under the Water.wav
    Pre-gap length 0: 00: 02.00
    Peak level 99.9 %
    Extraction speed 2.1 X
    Track quality 99.9 %
    Test CRC 1B6F4A90
    Copy CRC 1B6F4A90
    Track not present in AccurateRip database
    Copy OK
    None of the tracks are present in the AccurateRip database
    No errors occurred
    End of status report
    ==== Log checksum A817362A9AD3AA5038C1D150BD053961E4084EB51C81F6D4E76ED66FB0067530 ====
    Год выпуска : 2015
    Продолжительноcть : 01: 13: 11
    Треклист :
    01. Flapping Wings (06: 04)
    02. Over Coastal Range (05: 33)
    03. Deep Blue Shadow (02: 35)
    04. Ocean Foam (06: 56)
    05. Over the Sea/Under the Water (06: 46)
    06. Close to Wetland (05: 25)
    07. Withered Reflection (01: 17)
    08. Blooms in Dark (08: 34)
    09. Into the Ocean (08: 47)
    10. The Seashore of Endless Worlds (02: 13)
    11. Rolling Waves (06: 53)
    12. Diving Into Pacific Ocean (03: 33)
    13. Light Shining Through the Sea (08: 35)
    -----------------------
    DON\'T MODIFY THIS FILE
    -----------------------
    PERFORMER: auCDtect Task Manager, ver. 1.6.0 RC1 build 1.6.0.1
    Copyright (c) 2008-2010 y-soft. All rights reserved
    http://y-soft.org
    ANALYZER: auCDtect: CD records authenticity detector, version 0.8.2
    Copyright (c) 2004 Oleg Berngardt. All rights reserved.
    Copyright (c) 2004 Alexander Djourik. All rights reserved.
    FILE: 07. Withered Reflection.flac
    Size: 5909429 Hash: 0D3172E30E78205434FE439298903C07 Accuracy: -m0
    Conclusion: ???
    Signature: 7E0B908A2978DD1E32109B37CFAAEE3DC64B650E
    FILE: 06. Close to Wetland.flac
    Size: 29392589 Hash: AF849BDD8B253A0F44B87CC18336FF2E Accuracy: -m0
    Conclusion: CDDA 100%
    Signature: 247E577522E4258C7A411054CFE24F2F0CC86CB0
    FILE: 05. Over the Sea, Under the Water.flac
    Size: 41000586 Hash: A48BD91CD940DDEF5384798806DE44C3 Accuracy: -m0
    Conclusion: CDDA 87%
    Signature: 1B3E3E7F9ABC424BA4BA3C38E9B300A3484327F3
    FILE: 04. Ocean Foam.flac
    Size: 37550424 Hash: AEE27E2625F6CD5154E5AF52284C8A43 Accuracy: -m0
    Conclusion: CDDA 100%
    Signature: 74B4F4A3C8F78A2BB7C15DC586324DBBE1546E12
    FILE: 03. Deep Blue Shadow.flac
    Size: 13249180 Hash: B66508A09AF88CE68A88277D4532B431 Accuracy: -m0
    Conclusion: ???
    Signature: 1900E9983C04AC87C23AFA4674B4DFEDFC4288FF
    FILE: 02. Over Coastal Range.flac
    Size: 34478237 Hash: 74C65E2E527BCF1065C683AFDF6EE14C Accuracy: -m0
    Conclusion: CDDA 100%
    Signature: C041CB53BBAB978D8E03EB17888EFE1882AB79A7
    FILE: 01. Flapping Wings.flac
    Size: 39014827 Hash: 2320475995C69887C5DE0028F00005F9 Accuracy: -m0
    Conclusion: CDDA 43%
    Signature: F756891DF121DC8D375961FBEB29A29D7C690194
    FILE: 13. Light Shining Through the Sea.flac
    Size: 48836418 Hash: BD89AD00B6C7404E72C5ED96EB2020C5 Accuracy: -m0
    Conclusion: CDDA 58%
    Signature: A53E73769408F65DA3AED541B48CC9EBF9BFCF3E
    FILE: 12. Diving Into Pacific Ocean.flac
    Size: 20617128 Hash: DCE942F11E6D063B774A04A9816DB2DB Accuracy: -m0
    Conclusion: CDDA 100%
    Signature: 3505F211C9806655F13AB26A4B7C57370AAEB45D
    FILE: 11. Rolling Waves.flac
    Size: 39489448 Hash: 7F4CE00AEAE94B5212E2A52BC7EEFFDD Accuracy: -m0
    Conclusion: CDDA 100%
    Signature: FC4C908FFC8F6D249C7BCD8C1D39F67367CC0EA3
    FILE: 10. The Seashore of Endless Worlds.flac
    Size: 11547508 Hash: 9467BE0A28BE97E562E66443A6798EE2 Accuracy: -m0
    Conclusion: CDDA 87%
    Signature: E7FBA5E628A758CCA9D8382CE12965222574548B
    FILE: 09. Into the Ocean.flac
    Size: 55241838 Hash: 61F80F18353698663F757EC2C613A8AA Accuracy: -m0
    Conclusion: CDDA 49%
    Signature: FC8C79FD74571CF7E1F37D7D905EEDAAC0A729FB
    FILE: 08. Blooms in Dark.flac
    Size: 51669763 Hash: F1A24A244B1169639EF5E45029266864 Accuracy: -m0
    Conclusion: CDDA 43%
    Signature: 9F9E7FF886BE4A3DC043C4E0048F03297FD8345C
    Год выпуска : 2015
    Продолжительноcть : 00: 45: 44
    Треклист :
    01. 日出 Sunrise (7: 03)
    02. 有一撮陽光 Ray of Sunshine (2: 25)
    03. 越過海岸山脈 Over Coastal Range (5: 33)
    04. 深藍色長影 Deep Blue Shadow (2: 35)
    05. 在無垠世界的海邊相聚 The Seashore of Endless Worlds (2: 11)
    06. 當海潮湧向礁岩 Rolling Waves (6: 53)
    07. 浪沫撫過礫石灘 Ocean Foam (6: 56)
    08. 潛入太平洋 Diving into Pacific Ocean (3: 33)
    09. 仰望海平面 Light Shining Through the Sea (8: 35)
    X Lossless Decoder version 20141129a (148.2)
    XLD extraction logfile from 2015-09-20 16: 15: 56 +0800
    Cicada/仰望海平面 Light shining through the sea
    Used drive : BUFFALO Optical Drive (revision 2.00)
    Media type : Pressed CD
    Ripper mode : XLD Secure Ripper
    Disable audio cache : OK for the drive with a cache less than 1375KiB
    Make use of C2 pointers : NO
    Read offset correction : 0
    Max retry count : 20
    Gap status : Analyzed, Appended (except HTOA)
    TOC of the extracted CD
    Track | Start | Length | Start sector | End sector
    ---------------------------------------------------------
    1 | 00: 00: 00 | 07: 03: 34 | 0 | 31758
    2 | 07: 03: 34 | 02: 24: 46 | 31759 | 42604
    3 | 09: 28: 05 | 05: 32: 42 | 42605 | 67546
    4 | 15: 00: 47 | 02: 35: 30 | 67547 | 79201
    5 | 17: 36: 02 | 02: 10: 66 | 79202 | 89017
    6 | 19: 46: 68 | 06: 53: 26 | 89018 | 120018
    7 | 26: 40: 19 | 06: 56: 25 | 120019 | 151243
    8 | 33: 36: 44 | 03: 32: 52 | 151244 | 167195
    9 | 37: 09: 21 | 08: 35: 23 | 167196 | 205843
    AccurateRip Summary
    Disc not found in AccurateRip DB.
    All Tracks
    Album gain : -7.20 dB
    Peak : 1.000000
    Statistics
    Read error : 0
    Jitter error (maybe fixed) : 0
    Retry sector count : 0
    Damaged sector count : 0
    Track 01
    Filename : /Users/jou/Music/XLD/Cicada (2015) 仰望海平面 Light shining through the sea FLAC/01 - 日出 Sunrise.flac
    /Users/jou/Music/XLD/Cicada (2015) 仰望海平面 Light shining through the sea V0/01 - 日出 Sunrise.mp3
    Pre-gap length : 00: 02: 00
    Track gain : -7.94 dB
    Peak : 0.993134
    CRC32 hash (test run) : 94337CFE
    CRC32 hash : 94337CFE
    CRC32 hash (skip zero) : 23473330
    AccurateRip v1 signature : 8A111A47
    AccurateRip v2 signature : 720C3D55
    -Track not present in AccurateRip database.
    Statistics
    Read error : 0
    Jitter error (maybe fixed) : 0
    Retry sector count : 0
    Damaged sector count : 0
    Track 02
    Filename : /Users/jou/Music/XLD/Cicada (2015) 仰望海平面 Light shining through the sea FLAC/02 - 有一撮陽光 Ray of Sunshine.flac
    /Users/jou/Music/XLD/Cicada (2015) 仰望海平面 Light shining through the sea V0/02 - 有一撮陽光 Ray of Sunshine.mp3
    Pre-gap length : 00: 01: 55
    Track gain : -8.31 dB
    Peak : 0.996704
    CRC32 hash (test run) : F87B6E45
    CRC32 hash : F87B6E45
    CRC32 hash (skip zero) : 710F3D88
    AccurateRip v1 signature : 8D298DDE
    AccurateRip v2 signature : 8A048572
    -Track not present in AccurateRip database.
    Statistics
    Read error : 0
    Jitter error (maybe fixed) : 0
    Retry sector count : 0
    Damaged sector count : 0
    Track 03
    Filename : /Users/jou/Music/XLD/Cicada (2015) 仰望海平面 Light shining through the sea FLAC/03 - 越過海岸山脈 Over Coastal Range.flac
    /Users/jou/Music/XLD/Cicada (2015) 仰望海平面 Light shining through the sea V0/03 - 越過海岸山脈 Over Coastal Range.mp3
    Pre-gap length : 00: 01: 00
    Track gain : -7.62 dB
    Peak : 0.999969
    CRC32 hash (test run) : 6C66D5B2
    CRC32 hash : 6C66D5B2
    CRC32 hash (skip zero) : F00FFA08
    AccurateRip v1 signature : 0B46CB47
    AccurateRip v2 signature : 93ACF631
    -Track not present in AccurateRip database.
    Statistics
    Read error : 0
    Jitter error (maybe fixed) : 0
    Retry sector count : 0
    Damaged sector count : 0
    Track 04
    Filename : /Users/jou/Music/XLD/Cicada (2015) 仰望海平面 Light shining through the sea FLAC/04 - 深藍色長影 Deep Blue Shadow.flac
    /Users/jou/Music/XLD/Cicada (2015) 仰望海平面 Light shining through the sea V0/04 - 深藍色長影 Deep Blue Shadow.mp3
    Pre-gap length : 00: 03: 19
    Track gain : -3.83 dB
    Peak : 0.756561
    CRC32 hash (test run) : 63DE99A1
    CRC32 hash : 63DE99A1
    CRC32 hash (skip zero) : E8663D3E
    AccurateRip v1 signature : 8A2700AD
    AccurateRip v2 signature : D5F8DCD5
    -Track not present in AccurateRip database.
    Statistics
    Read error : 0
    Jitter error (maybe fixed) : 0
    Retry sector count : 0
    Damaged sector count : 0
    Track 05
    Filename : /Users/jou/Music/XLD/Cicada (2015) 仰望海平面 Light shining through the sea FLAC/05 - 在無埂世界的海邊相聚 The seashore of endless worlds.flac
    /Users/jou/Music/XLD/Cicada (2015) 仰望海平面 Light shining through the sea V0/05 - 在無埂世界的海邊相聚 The seashore of endless worlds.mp3
    Pre-gap length : 00: 01: 00
    Track gain : -4.36 dB
    Peak : 0.717773
    CRC32 hash (test run) : BD04EE7E
    CRC32 hash : BD04EE7E
    CRC32 hash (skip zero) : 2E659468
    AccurateRip v1 signature : 26095FFA
    AccurateRip v2 signature : CFA77ED9
    -Track not present in AccurateRip database.
    Statistics
    Read error : 0
    Jitter error (maybe fixed) : 0
    Retry sector count : 0
    Damaged sector count : 0
    Track 06
    Filename : /Users/jou/Music/XLD/Cicada (2015) 仰望海平面 Light shining through the sea FLAC/06 - 當海潮湧向礁岩 Rolling waves.flac
    /Users/jou/Music/XLD/Cicada (2015) 仰望海平面 Light shining through the sea V0/06 - 當海潮湧向礁岩 Rolling waves.mp3
    Pre-gap length : 00: 00: 45
    Track gain : -6.25 dB
    Peak : 0.999969
    CRC32 hash (test run) : 113BAF08
    CRC32 hash : 113BAF08
    CRC32 hash (skip zero) : DAFD7F49
    AccurateRip v1 signature : 23E746F8
    AccurateRip v2 signature : F72C3605
    -Track not present in AccurateRip database.
    Statistics
    Read error : 0
    Jitter error (maybe fixed) : 0
    Retry sector count : 0
    Damaged sector count : 0
    Track 07
    Filename : /Users/jou/Music/XLD/Cicada (2015) 仰望海平面 Light shining through the sea FLAC/07 - 浪末撫過礫石灘 Ocean Foam.flac
    /Users/jou/Music/XLD/Cicada (2015) 仰望海平面 Light shining through the sea V0/07 - 浪末撫過礫石灘 Ocean Foam.mp3
    Pre-gap length : 00: 02: 52
    Track gain : -7.11 dB
    Peak : 0.988647
    CRC32 hash (test run) : B871E0AA
    CRC32 hash : B871E0AA
    CRC32 hash (skip zero) : 14E86BF9
    AccurateRip v1 signature : 994F635C
    AccurateRip v2 signature : 5D561759
    -Track not present in AccurateRip database.
    Statistics
    Read error : 0
    Jitter error (maybe fixed) : 0
    Retry sector count : 0
    Damaged sector count : 0
    Track 08
    Filename : /Users/jou/Music/XLD/Cicada (2015) 仰望海平面 Light shining through the sea FLAC/08 - 潛入太平洋 Diving into Pacific Ocean.flac
    /Users/jou/Music/XLD/Cicada (2015) 仰望海平面 Light shining through the sea V0/08 - 潛入太平洋 Diving into Pacific Ocean.mp3
    Pre-gap length : 00: 02: 30
    Track gain : -6.52 dB
    Peak : 1.000000
    CRC32 hash (test run) : 188FF981
    CRC32 hash : 188FF981
    CRC32 hash (skip zero) : D94C472A
    AccurateRip v1 signature : 1CD6BC96
    AccurateRip v2 signature : F0294A0B
    -Track not present in AccurateRip database.
    Statistics
    Read error : 0
    Jitter error (maybe fixed) : 0
    Retry sector count : 0
    Damaged sector count : 0
    Track 09
    Filename : /Users/jou/Music/XLD/Cicada (2015) 仰望海平面 Light shining through the sea FLAC/09 - 仰望海平面 Light Shining Through the Sea.flac
    /Users/jou/Music/XLD/Cicada (2015) 仰望海平面 Light shining through the sea V0/09 - 仰望海平面 Light Shining Through the Sea.mp3
    Pre-gap length : 00: 04: 09
    Track gain : -5.48 dB
    Peak : 1.000000
    CRC32 hash (test run) : 9EFE228E
    CRC32 hash : 9EFE228E
    CRC32 hash (skip zero) : E0E62941
    AccurateRip v1 signature : 7D62DE50
    AccurateRip v2 signature : 3C7938EE
    -Track not present in AccurateRip database.
    Statistics
    Read error : 0
    Jitter error (maybe fixed) : 0
    Retry sector count : 0
    Damaged sector count : 0
    No errors occurred
    End of status report
    -----BEGIN XLD SIGNATURE-----
    W04bwZqZvRnEldI22LTjsCyAM3RWhrzgYbbNpwm9Dq6LqoS0.chQEZ3WyHc.EWY22qLnybkmDr1R5u9Qn7JeQLav8vC3z6ypiCIVVzK
    -----END XLD SIGNATURE-----
    Год выпуска : 2015
    Продолжительноcть : 00: 06: 19
    Треклист :
    01. 湖面的盡頭 Lake\'s End-Quintet (06: 19)
    -----------------------
    DON\'T MODIFY THIS FILE
    -----------------------
    PERFORMER: auCDtect Task Manager, ver. 1.6.0 RC1 build 1.6.0.1
    Copyright (c) 2008-2010 y-soft. All rights reserved
    http://y-soft.org
    ANALYZER: auCDtect: CD records authenticity detector, version 0.8.2
    Copyright (c) 2004 Oleg Berngardt. All rights reserved.
    Copyright (c) 2004 Alexander Djourik. All rights reserved.
    FILE: 01. 湖面的盡頭 Lake\'s End-Quintet.flac
    Size: 34358153 Hash: C42CAC1ED03EFCB2B0710CC1896E7434 Accuracy: -m0
    Conclusion: CDDA 100%
    Signature: D6E8BAC5EE86E92A6B46A578196B72D0A2577E0F
    Год выпуска : 2016
    Продолжительноcть : 00: 56: 18
    Треклист :
    01. Farewell (in a pretentious way) (06: 04)
    02. …till the day we meet (06: 25)
    03. Drowning in the Fog of yours (04: 12)
    04. Happily Ever After? (02: 00)
    05. Pieces (04: 55)
    06. Encrypted Desire (02: 49)
    07. No Words (03: 18)
    08. Breakaway (03: 55)
    09. Lake’s End (06: 15)
    10. Meteoric Night (04: 54)
    11. Told You! (03: 10)
    12. Boom Boom (02: 14)
    13. What do I do? (02: 52)
    14. Here We Are! (03: 15)
    -----------------------
    DON\'T MODIFY THIS FILE
    -----------------------
    PERFORMER: auCDtect Task Manager, ver. 1.6.0 RC1 build 1.6.0.1
    Copyright (c) 2008-2010 y-soft. All rights reserved
    http://y-soft.org
    ANALYZER: auCDtect: CD records authenticity detector, version 0.8.2
    Copyright (c) 2004 Oleg Berngardt. All rights reserved.
    Copyright (c) 2004 Alexander Djourik. All rights reserved.
    FILE: 07. No Words.flac
    Size: 17811555 Hash: E6603F6D791DA00EF001B48B9454A38A Accuracy: -m0
    Conclusion: CDDA 100%
    Signature: 7333AD4597E2F0C17A5920B7FBE180F41C4D6106
    FILE: 06. Encrypted Desire.flac
    Size: 12409342 Hash: 823E2EB11F984410A3D9B27E349BEFFC Accuracy: -m0
    Conclusion: CDDA 100%
    Signature: 18654993C19EB808FEB522BBB4E65E5790F3C7CC
    FILE: 05. Pieces.flac
    Size: 24261283 Hash: 291E80AED603D10B349D4FA77D52D804 Accuracy: -m0
    Conclusion: CDDA 100%
    Signature: 5B85D3CF02E1BC34E828261D02D836BFD0FB091C
    FILE: 04. Happily Ever After!.flac
    Size: 9159813 Hash: 925616CBA7C8E59372E048E3F3E8A38C Accuracy: -m0
    Conclusion: CDDA 100%
    Signature: E74529C14CDEAF59A2ACFA2D90C6382CC1C2D77D
    FILE: 03. Drowning in the Fog of yours.flac
    Size: 20566307 Hash: 75C418D140940F302C7D38D103737E64 Accuracy: -m0
    Conclusion: CDDA 100%
    Signature: C487693C7C4727CE3EC2922889E0BC88A63F380C
    FILE: 02. …till the day we meet.flac
    Size: 30403778 Hash: C31CA0341484F347B63E6BF394E4AFCA Accuracy: -m0
    Conclusion: CDDA 100%
    Signature: 7E0115496A3C4DFD8708AA9FE4C117B49B8789CF
    FILE: 01. Farewell (in a pretentious way).flac
    Size: 30249532 Hash: 25929780F16E67B1889509E2F2961B2F Accuracy: -m0
    Conclusion: CDDA 100%
    Signature: 2B9906795EA6B8A4A9EFED475A5D759859E4DD25
    FILE: 14. Here We Are!.flac
    Size: 15494237 Hash: CA958162356C83BBD940F99EC9B0C26F Accuracy: -m0
    Conclusion: CDDA 100%
    Signature: 9A841190D4C8F2A357D1DB0537F792C8A2CB0B9B
    FILE: 13. What do I do!.flac
    Size: 10131277 Hash: 82D895D43B9505A5A0EC99A4F8547E70 Accuracy: -m0
    Conclusion: CDDA 100%
    Signature: 13A086124844D8C66C01E9876ECE2BBB257D2BF6
    FILE: 12. Boom Boom.flac
    Size: 8556556 Hash: 5E2468F0538390AFB42D100F8491047C Accuracy: -m0
    Conclusion: CDDA 100%
    Signature: 34EE68EF331EB887BC771112A4004B0DDB1D4C1B
    FILE: 11. Told You!.flac
    Size: 13822275 Hash: 6E6496B269C2EEA397EF8A1B9817D776 Accuracy: -m0
    Conclusion: CDDA 100%
    Signature: 2465E57B3A2CE3EACDFEE742B38A75FF6D99FCEB
    FILE: 10. Meteoric Night.flac
    Size: 25814373 Hash: DA11D11CB066CF00A5E16C4E2977BA2A Accuracy: -m0
    Conclusion: CDDA 100%
    Signature: 9E8CF5FE90236E3C6547667485D31575D989C00F
    FILE: 09. Lake’s End.flac
    Size: 30311184 Hash: 89B5EE6AEA4541A8A1BAD1F384C3B3BE Accuracy: -m0
    Conclusion: CDDA 100%
    Signature: 38AE42FC674C6FA121E20AFECB7F3BA46CDBF5AA
    FILE: 08. Breakaway.flac
    Size: 22480306 Hash: F1BBA177F0D1A7C107F19677B68B5428 Accuracy: -m0
    Conclusion: CDDA 99%
    Signature: 71AE52C992DCA124885004F7067A58EB9012DF5E
    Год выпуска : 2017
    Продолжительноcть : 00: 37: 56
    Треклист :
    01. 等待再一次躍出水面 Dolphins Leap (05: 28)
    02. 飛往山的另一頭 Fly (02: 56)
    03. 不在的你們都去了哪裡 White Forest (05: 11)
    04. 原本是家的地方 Used to be Home (08: 56)
    05. 游向那片被丟棄的海 Swimming in the Plastic Ocean (03: 07)
    06. 鯨 Whale Family (06: 18)
    07. 竹圍小貓 The Stray Cat in Zhuwei (06: 00)
    -----------------------
    DON\'T MODIFY THIS FILE
    -----------------------
    PERFORMER: auCDtect Task Manager, ver. 1.6.0 RC1 build 1.6.0.1
    Copyright (c) 2008-2010 y-soft. All rights reserved
    http://y-soft.org
    ANALYZER: auCDtect: CD records authenticity detector, version 0.8.2
    Copyright (c) 2004 Oleg Berngardt. All rights reserved.
    Copyright (c) 2004 Alexander Djourik. All rights reserved.
    FILE: 07. 竹圍小貓 The Stray Cat in Zhuwei.flac
    Size: 28634386 Hash: 616458E5D6923569C8D2F2489B8003AD Accuracy: -m0
    Conclusion: CDDA 99%
    Signature: 645DB09FA7BB0CD60BB648512F30968634DE1BA5
    FILE: 06. 鯨 Whale Family.flac
    Size: 33059139 Hash: 9256DFCE60B3F5D663BA0127916D4DAB Accuracy: -m0
    Conclusion: CDDA 100%
    Signature: 5C695B88D57047E4EF551226A591308682A3B808
    FILE: 05. 游向那片被丟棄的海 Swimming in the Plastic Ocean.flac
    Size: 13077393 Hash: 6E5DB05B0C9A538098642CB44ECFA37D Accuracy: -m0
    Conclusion: CDDA 100%
    Signature: 8F9A14AE0C968BE7CDC61F7F33EC5F202DAF97F3
    FILE: 04. 原本是家的地方 Used to be Home.flac
    Size: 45749720 Hash: A21784095512941C3432403E5EA8C2C6 Accuracy: -m0
    Conclusion: CDDA 100%
    Signature: F8B6FD4EA5C25A9FA833459E6B017ACCD122B77D
    FILE: 03. 不在的你們都去了哪裡 White Forest.flac
    Size: 27923778 Hash: 303709D50FDCB61AEDD11F599DC81745 Accuracy: -m0
    Conclusion: CDDA 100%
    Signature: 33E51D547A12DF2CD8642FEFF1C52B7B318217D4
    FILE: 02. 飛往山的另一頭 Fly.flac
    Size: 17527293 Hash: D1903592583B52035DB0D8194DD63CC5 Accuracy: -m0
    Conclusion: CDDA 58%
    Signature: 7144F227DBEEE0C6F81E0A24337C69D760090E82
    FILE: 01. 等待再一次躍出水面 Dolphins Leap.flac
    Size: 29496894 Hash: 0D5A0545431E0EFCEBBD0A0DDA729CD8 Accuracy: -m0
    Conclusion: CDDA 100%
    Signature: A73B049E8B93766963A5DAC3A80DEF3824424770
    Год выпуска : 2019
    Продолжительноcть : 00: 37: 20
    Треклист :
    01. 走入有霧的森林 Hiking in the Mist (03: 36)
    02. 總是有水的地方 Mountain Stream (01: 57)
    03. 夕陽消失之前 Twilight Clouds (03: 29)
    04. 降落在金黃色草坡 Sunlit Grassland (08: 09)
    05. 俯瞰我們的家 Overlook Where We Came From (04: 12)
    06. 樹根與石縫之間 Ferns between Roots and Rocks (01: 46)
    07. 驟雨 Sudden Rain (04: 47)
    08. 山屋裡的小腳印 Sneaky Visitors in the Cabin (02: 09)
    09. 踏出一條白色的路 Snow Trail (07: 15)
    -----------------------
    DON\'T MODIFY THIS FILE
    -----------------------
    PERFORMER: auCDtect Task Manager, ver. 1.6.0 RC1 build 1.6.0.1
    Copyright (c) 2008-2010 y-soft. All rights reserved
    http://y-soft.org
    ANALYZER: auCDtect: CD records authenticity detector, version 0.8.2
    Copyright (c) 2004 Oleg Berngardt. All rights reserved.
    Copyright (c) 2004 Alexander Djourik. All rights reserved.
    FILE: 09. 踏出一條白色的路 Snow Trail.flac
    Size: 30764376 Hash: 7C7635EF9ED5433A1CA2CF3945AB704A Accuracy: -m0
    Conclusion: CDDA 100%
    Signature: B87C7045833AC3B50B7DBFF2599AC654AA5BA4AC
    FILE: 08. 山屋裡的小腳印 Sneaky Visitors in the Cabin.flac
    Size: 10285138 Hash: 41D05F8BD4913D48351542371DE24F3D Accuracy: -m0
    Conclusion: CDDA 100%
    Signature: A0566FCC0FC04CDD1CC1DFA2509FC36F8953C889
    FILE: 07. 驟雨 Sudden Rain.flac
    Size: 23940161 Hash: 751A61A79B436EB964F0AC2E9FA29B6B Accuracy: -m0
    Conclusion: CDDA 100%
    Signature: B90308709B7D46611445C936DED9F1AB10923A47
    FILE: 06. 樹根與石縫之間 Ferns between Roots and Rocks.flac
    Size: 8657523 Hash: 12E5F7860692718F1E8A468A30167AB6 Accuracy: -m0
    Conclusion: CDDA 100%
    Signature: 4B343222EEA1D606223168DE7E9F0460DFFC1024
    FILE: 05. 俯瞰我們的家 Overlook Where We Came From.flac
    Size: 24485697 Hash: 7B2FE04820E1168B37359F7A439DB7BC Accuracy: -m0
    Conclusion: CDDA 100%
    Signature: E171A95FDAD424F82CC7A6FCE543650B76721567
    FILE: 04. 降落在金黃色草坡 Sunlit Grassland.flac
    Size: 39590238 Hash: 471CF4F0FE4774FD5D70113255418C27 Accuracy: -m0
    Conclusion: CDDA 99%
    Signature: D5E94482366B30C21EFEA97D14BB5ADD95EC17C5
    FILE: 03. 夕陽消失之前 Twilight Clouds.flac
    Size: 17398802 Hash: 1CA6090B6D65D627B7650CD9F6825DEB Accuracy: -m0
    Conclusion: CDDA 100%
    Signature: F50189C57D8ECB3027DE0B27FF0F9783ABC9CD45
    FILE: 02. 總是有水的地方 Mountain Stream.flac
    Size: 7987273 Hash: 83171424581C206A095D36A316B939EB Accuracy: -m0
    Conclusion: CDDA 100%
    Signature: 5E4DA98EF625BDCB8368978930E896A86BDAA06D
    FILE: 01. 走入有霧的森林 Hiking in the Mist.flac
    Size: 17694558 Hash: CEDF16C931BAAD09BB13C0357F20670D Accuracy: -m0
    Conclusion: CDDA 100%
    Signature: 39E0C4190D78DC0A9EE3BA28BCFB6E76075FF6E3
    許罡愷 Hsu Kang-Kai.小提琴 Violin
    鍾漁靜 Eunice Chung.中提琴 Viola
    楊庭禎 Yang Ting-Chen.大提琴 Cello
    謝維倫 Hsieh Wei-Lun.木吉他 Guitar
    江致潔 Jesy Chiang.作曲 鋼琴 Piano


    Cicada (Taiwan) - Discography 10 Releases (2010-2019) White Wabbit, Dear Musik, flau [FLAC|Lossless|tracks+.cue, tracks] <Modern Classical, Chamber Music, Instrumental>
    Рейтинг →
     (голосов: 1, оценка 4/5, голосовать можно 1 раз )

    Другие торренты по теме:



      Комментарии (0):

      Информация

      Информация

        Посетители, находящиеся в группе Гости, не могут оставлять комментарии в данной новости.

        ↓ Меню




        ↓ Опрос

        Вы добавили сайт в закладки?
        Да
        Нет


        Популярное

        ДиДюЛя - 17 альбомов (2000-2017) дискография [MP3|320 кб / с] <Фолк,Фламенко,Фьюжн>

        (скачиваний: 154)
        Чиж & Co - Коллекция легендарных песен (2014) [MP3|320 кб / с]<Rock> скачать через торрент бесплатно

        (скачиваний: 140)
        Стас Намин и Группа ЦВЕТЫ - 40 лет (Полная версия концерта) - Crocus Hall (Live) (2010) HDTVRip [AVC / H.264, 1080p]

        (скачиваний: 102)
        VA - Большая коллекция клипов в авто (2DIN) (2000-2016) SATRip

        (скачиваний: 100)
        The Beatles - Collection of video clips (1964-1983) HDTV [720p] скачать через торрент бесплатно

        (скачиваний: 52)
        Дима Билан - 12 альбомов, 4 сингла (2003 - 2017) [MP3|320 Kbps] <Pop>

        (скачиваний: 47)
        Александр Марцинкевич и группа Кабриолет - Лучших 50 песен (2016) Compilation [FLAC|Lossless|WEB-DL|tracks] <Chanson>

        (скачиваний: 43)
        Голубой огонек - "В первый час..." (1965) SATRip [H.264] [colourization] скачать через торрент бесплатно

        (скачиваний: 41)
        Канцлер Ги - 17 альбомов (2002-2017) [MP3|97-320 kbps]<Нео-Фолк / блюз>

        (скачиваний: 36)
        Демис Руссос - Лучшее (2010) 4CD [MP3|320 кб / с]<Pop>

        (скачиваний: 36)