.
Авторизация | Регистрация
bitok.xyz
» » Любовь Успенская - Лети, моя девочка, лети (2010) [FLAC|Lossless|image + .cue] <Шансон> торрент скачать бесплатно


    Любовь Успенская - Лети, моя девочка, лети (2010) [FLAC|Lossless|image + .cue] <Шансон> торрент скачать бесплатно

    Дата: 26-12-2019, 05:00 | .torrent скачали: 3

    Любовь Успенская - Лети, моя девочка, лети (2010) [FLAC|Lossless|image + .cue] <Шансон>Год: 2010
    Жанр: Шансон
    Продолжительность: 00: 47: 02
    Кодек: FLAC
    Битрейт: Lossless
    Тип рипа: image + .cue

    Треклист

    01. Моя осенняя любовь 04: 17
    02. Там, где тебе нет места 04: 25
    03. Давай начнем сначала 03: 36
    04. Карета 04: 12
    05. Подари мне 04: 12
    06. Я не знаю 03: 22
    07. Русская любовь 04: 28
    08. Я женщина 03: 18
    09. Лети, лети 03: 29
    10. Все повторилось 03: 57
    11. Скрипка 03: 52
    12. Беги, беги 03: 49Ковры внутри Код: выделить все
    Exact Audio Copy V0.99 prebeta 5 from 4. May 2009
    Отчёт EAC об извлечении, выполненном 26. октября 2010, 23:48
    Любовь Успеская/Лети, моя девочка, лети
    Дисковод: TSSTcorpCDDVDW SH-S223F Adapter: 2 ID: 0
    Режим чтения : Достоверность
    Использование точного потока : Да
    Отключение кэша аудио : Да
    Использование указателей C2 : Нет
    Коррекция смещения при чтении : 6
    Способность читать области Lead-in и Lead-out : Нет
    Заполнение пропущенных сэмплов тишиной : Да
    Удаление блоков с тишиной в начале и конце : Нет
    При вычислениях CRC использовались нулевые сэмплы : Да
    Интерфейс : Встроенный Win32-интерфейс для Win NT/2000
    Выходной формат : Внутренние WAV-операции
    Формат сэмплов : 44.100 Гц; 16 бит; стерео
    TOC извлечённого CD
    Трек | Старт | Длительность | Начальный сектор | Конечный сектор
    ---------------------------------------------------------------------
    1 | 0:00.00 | 4:19.45 | 0 | 19469
    2 | 4:19.45 | 4:25.60 | 19470 | 39404
    3 | 8:45.30 | 3:36.00 | 39405 | 55604
    4 | 12:21.30 | 4:12.60 | 55605 | 74564
    5 | 16:34.15 | 4:12.00 | 74565 | 93464
    6 | 20:46.15 | 3:22.30 | 93465 | 108644
    7 | 24:08.45 | 4:28.23 | 108645 | 128767
    8 | 28:36.68 | 3:18.38 | 128768 | 143655
    9 | 31:55.31 | 3:29.08 | 143656 | 159338
    10 | 35:24.39 | 3:57.15 | 159339 | 177128
    11 | 39:21.54 | 3:52.53 | 177129 | 194581
    12 | 43:14.32 | 3:47.30 | 194582 | 211636
    Характеристики диапазона извлечения и сообщения об ошибках
    Выбранный диапазон
    Имя файла F:МоеЛюбовь Успенская - Лети, моя девочка, летиЛюбовь Успеская - Лети, моя девочка, лети.wav
    Пиковый уровень 98.8 %
    Качество диапазона 100.0 %
    CRC теста 3B3C0C4E
    CRC копии 3B3C0C4E
    Копирование... OK
    Ошибок не произошло
    Конец отчёта
    Код: выделить все
    AUDIOCHECKER v2.0 beta (build 457) - by Dester -opdester@freemail.hu
    ~~~~~~~~~~~~~~~~~~~~~~~~~~~~~~~~~~
    -=== НЕ РЕДАКТИРУЙТЕ ЭТОТ ФАЙЛ! ===-
    Путь: ...Любовь Успенская - Лети, моя девочка, лети (2010)HQ
    1 -=- Любовь Успеская - Лети, моя девочка, лети.flac -=- CDDA (100%)
    140908996


    Любовь Успенская - Лети, моя девочка, лети (2010) [FLAC|Lossless|image + .cue] <Шансон>
    Рейтинг →
     (голосов: 1, оценка 5/5, голосовать можно 1 раз )

    Другие торренты по теме:

  • Любовь Успенская - Greatest Hits (2006) 2CD [FLAC|Lossless|image + .cue] <Chanson>
  • Любовь Успенская - Еще Люблю (2016) [MP3|320 Kbps] <Шансон>
  • Любовь Успенская - Значит, пора (2019) [MP3|320 Kbps] <Шансон>
  • Любовь Успенская - Значит, пора (2019) [FLAC|Lossless|WEB-DL|tracks] <Шансон>


    • Комментарии (0):

      Информация

      Информация

        Посетители, находящиеся в группе Гости, не могут оставлять комментарии в данной новости.

        ↓ Меню




        ↓ Опрос

        Вы добавили сайт в закладки?
        Да
        Нет


        Популярное

        ДиДюЛя - 17 альбомов (2000-2017) дискография [MP3|320 кб / с] <Фолк,Фламенко,Фьюжн>

        (скачиваний: 157)
        Чиж & Co - Коллекция легендарных песен (2014) [MP3|320 кб / с]<Rock> скачать через торрент бесплатно

        (скачиваний: 140)
        Стас Намин и Группа ЦВЕТЫ - 40 лет (Полная версия концерта) - Crocus Hall (Live) (2010) HDTVRip [AVC / H.264, 1080p]

        (скачиваний: 102)
        VA - Большая коллекция клипов в авто (2DIN) (2000-2016) SATRip

        (скачиваний: 100)
        The Beatles - Collection of video clips (1964-1983) HDTV [720p] скачать через торрент бесплатно

        (скачиваний: 54)
        Дима Билан - 12 альбомов, 4 сингла (2003 - 2017) [MP3|320 Kbps] <Pop>

        (скачиваний: 49)
        Александр Марцинкевич и группа Кабриолет - Лучших 50 песен (2016) Compilation [FLAC|Lossless|WEB-DL|tracks] <Chanson>

        (скачиваний: 43)
        Голубой огонек - "В первый час..." (1965) SATRip [H.264] [colourization] скачать через торрент бесплатно

        (скачиваний: 41)
        Демис Руссос - Лучшее (2010) 4CD [MP3|320 кб / с]<Pop>

        (скачиваний: 36)
        Канцлер Ги - 17 альбомов (2002-2017) [MP3|97-320 kbps]<Нео-Фолк / блюз>

        (скачиваний: 36)