.
Авторизация | Регистрация
bitok.xyz
» » Joe Negri - Uptown Elegance (2004) MCG Jazz [FLAC|Lossless|tracks + .cue] <Mainstream Jazz, Big Band, Guitar Jazz> торрент скачать бесплатно


    Joe Negri - Uptown Elegance (2004) MCG Jazz [FLAC|Lossless|tracks + .cue] <Mainstream Jazz, Big Band, Guitar Jazz> торрент скачать бесплатно

    Дата: 28-12-2019, 05:00 | .torrent скачали: 4

    Joe Negri - Uptown Elegance (2004) MCG Jazz [FLAC|Lossless|tracks + .cue] &ltMainstream Jazz, Big Band, Guitar Jazz>Жанр: Mainstream Jazz, Big Band, Guitar Jazz
    Издание: MCG Jazz - MCGJ1015
    Продолжительность: 00: 52: 11
    Кодек: FLAC (tracks+.cue)
    Битрейт: Lossless
    Источник (релизер): Dopefish
    Страна-производитель диска: USA
    Наличие сканов в содержимом раздачи: нет

    Треклист

    01. Sweet and Lovely 4: 56
    02. How My Heart Sings 4: 59
    03. It\'s a Beautiful Day in the Neighborhood 3: 04
    04. The Best Thing for You 3: 51
    05. Solitude 5: 38
    06. A Weaver of Dreams 6: 27
    07. Caravan 8: 09
    08. Nina\'s Smile 3: 05
    09. So in Love 5: 05
    10. Blues for Brody 6: 58
    X Lossless Decoder version 20191004 (152.0)
    XLD extraction logfile from 2019-12-21 13: 17: 14 -0500
    Joe Negri/Uptown Elegance
    Used drive : PIONEER BD-RW BDR-XS07 (revision 1.00)
    Media type : Pressed CD
    Ripper mode : XLD Secure Ripper
    Disable audio cache : OK for the drive with a cache less than 1375KiB
    Make use of C2 pointers : NO
    Read offset correction : 667
    Max retry count : 20
    Gap status : Analyzed, Appended (except HTOA)
    TOC of the extracted CD
    Track | Start | Length | Start sector | End sector
    ---------------------------------------------------------
    1 | 00: 00: 00 | 04: 56: 13 | 0 | 22212
    2 | 04: 56: 13 | 04: 59: 17 | 22213 | 44654
    3 | 09: 55: 30 | 03: 04: 12 | 44655 | 58466
    4 | 12: 59: 42 | 03: 50: 47 | 58467 | 75763
    5 | 16: 50: 14 | 05: 37: 72 | 75764 | 101110
    6 | 22: 28: 11 | 06: 27: 20 | 101111 | 130155
    7 | 28: 55: 31 | 08: 08: 51 | 130156 | 166806
    8 | 37: 04: 07 | 03: 04: 51 | 166807 | 180657
    9 | 40: 08: 58 | 05: 04: 64 | 180658 | 203521
    10 | 45: 13: 47 | 06: 57: 65 | 203522 | 234861
    AccurateRip Summary (DiscID: 001296a7-0096e0ae-7b0c3b0a)
    Track 01 : OK (v2, confidence 2/2)
    Track 02 : OK (v2, confidence 2/2)
    Track 03 : OK (v2, confidence 2/2)
    Track 04 : OK (v2, confidence 2/2)
    Track 05 : OK (v2, confidence 2/2)
    Track 06 : OK (v2, confidence 2/2)
    Track 07 : OK (v2, confidence 2/2)
    Track 08 : OK (v2, confidence 1/2)
    Track 09 : OK (v2, confidence 2/2)
    Track 10 : OK (v2, confidence 2/2)
    -All tracks accurately ripped.
    All Tracks
    Album gain : -2.39 dB
    Peak : 0.999969
    Statistics
    Read error : 0
    Jitter error (maybe fixed) : 0
    Retry sector count : 0
    Damaged sector count : 0
    Track 01
    Filename : /Users/Shared/Music/Joe Negri - Uptown Elegance (2004) FLAC/01 Sweet And Lovely.flac
    Pre-gap length : 00: 02: 00
    Track gain : -3.56 dB
    Peak : 0.999969
    CRC32 hash (test run) : 05F994A3
    CRC32 hash : 05F994A3
    CRC32 hash (skip zero) : D21DD265
    AccurateRip v1 signature : FAA4CECF
    AccurateRip v2 signature : 6B8582B2
    -Accurately ripped (v2, confidence 2/2)
    Statistics
    Read error : 0
    Jitter error (maybe fixed) : 0
    Retry sector count : 0
    Damaged sector count : 0
    Track 02
    Filename : /Users/Shared/Music/Joe Negri - Uptown Elegance (2004) FLAC/02 How My Heart Sings.flac
    Pre-gap length : 00: 02: 16
    Track gain : -2.20 dB
    Peak : 0.988892
    CRC32 hash (test run) : B8538B1B
    CRC32 hash : B8538B1B
    CRC32 hash (skip zero) : BB0DB283
    AccurateRip v1 signature : BC999A28
    AccurateRip v2 signature : E2ABD313
    -Accurately ripped (v2, confidence 2/2)
    Statistics
    Read error : 0
    Jitter error (maybe fixed) : 0
    Retry sector count : 0
    Damaged sector count : 0
    Track 03
    Filename : /Users/Shared/Music/Joe Negri - Uptown Elegance (2004) FLAC/03 It\'s A Beautiful Day In The Neighborhood.flac
    Pre-gap length : 00: 02: 34
    Track gain : -3.27 dB
    Peak : 0.987640
    CRC32 hash (test run) : 5F7D6DD1
    CRC32 hash : 5F7D6DD1
    CRC32 hash (skip zero) : 332F7004
    AccurateRip v1 signature : 2F40E9EF
    AccurateRip v2 signature : A6F886F8
    -Accurately ripped (v2, confidence 2/2)
    Statistics
    Read error : 0
    Jitter error (maybe fixed) : 0
    Retry sector count : 0
    Damaged sector count : 0
    Track 04
    Filename : /Users/Shared/Music/Joe Negri - Uptown Elegance (2004) FLAC/04 The Best Thing For You.flac
    Pre-gap length : 00: 01: 03
    Track gain : -3.34 dB
    Peak : 0.999969
    CRC32 hash (test run) : 1F29CFD5
    CRC32 hash : 1F29CFD5
    CRC32 hash (skip zero) : 0C103D70
    AccurateRip v1 signature : 284E4423
    AccurateRip v2 signature : 487FF472
    -Accurately ripped (v2, confidence 2/2)
    Statistics
    Read error : 0
    Jitter error (maybe fixed) : 0
    Retry sector count : 0
    Damaged sector count : 0
    Track 05
    Filename : /Users/Shared/Music/Joe Negri - Uptown Elegance (2004) FLAC/05 Solitude.flac
    Pre-gap length : 00: 01: 68
    Track gain : -2.23 dB
    Peak : 0.988678
    CRC32 hash (test run) : D8D7C6E9
    CRC32 hash : D8D7C6E9
    CRC32 hash (skip zero) : 6C7AD072
    AccurateRip v1 signature : BE9C5808
    AccurateRip v2 signature : D1C68BD9
    -Accurately ripped (v2, confidence 2/2)
    Statistics
    Read error : 0
    Jitter error (maybe fixed) : 0
    Retry sector count : 0
    Damaged sector count : 0
    Track 06
    Filename : /Users/Shared/Music/Joe Negri - Uptown Elegance (2004) FLAC/06 A Weaver Of Dreams.flac
    Pre-gap length : 00: 02: 55
    Track gain : -1.41 dB
    Peak : 0.990204
    CRC32 hash (test run) : 37A484DE
    CRC32 hash : 37A484DE
    CRC32 hash (skip zero) : 58727D8C
    AccurateRip v1 signature : 343C5BFC
    AccurateRip v2 signature : FF5D9E7F
    -Accurately ripped (v2, confidence 2/2)
    Statistics
    Read error : 0
    Jitter error (maybe fixed) : 0
    Retry sector count : 0
    Damaged sector count : 0
    Track 07
    Filename : /Users/Shared/Music/Joe Negri - Uptown Elegance (2004) FLAC/07 Caravan.flac
    Pre-gap length : 00: 03: 24
    Track gain : -2.13 dB
    Peak : 0.999481
    CRC32 hash (test run) : 1E22BBE5
    CRC32 hash : 1E22BBE5
    CRC32 hash (skip zero) : 04126706
    AccurateRip v1 signature : 391D4105
    AccurateRip v2 signature : 38E75D53
    -Accurately ripped (v2, confidence 2/2)
    Statistics
    Read error : 0
    Jitter error (maybe fixed) : 0
    Retry sector count : 0
    Damaged sector count : 0
    Track 08
    Filename : /Users/Shared/Music/Joe Negri - Uptown Elegance (2004) FLAC/08 Nina\'s Smile.flac
    Pre-gap length : 00: 03: 16
    Track gain : -1.48 dB
    Peak : 0.988617
    CRC32 hash (test run) : E29CCA0F
    CRC32 hash : E29CCA0F
    CRC32 hash (skip zero) : F6F21A21
    AccurateRip v1 signature : 4B332AE8
    AccurateRip v2 signature : 06CEF98B
    -Accurately ripped (v2, confidence 1/2)
    Statistics
    Read error : 0
    Jitter error (maybe fixed) : 0
    Retry sector count : 0
    Damaged sector count : 0
    Track 09
    Filename : /Users/Shared/Music/Joe Negri - Uptown Elegance (2004) FLAC/09 So In Love.flac
    Pre-gap length : 00: 01: 48
    Track gain : -3.10 dB
    Peak : 0.988800
    CRC32 hash (test run) : 9DE9D538
    CRC32 hash : 9DE9D538
    CRC32 hash (skip zero) : 74BDE12D
    AccurateRip v1 signature : D0600F78
    AccurateRip v2 signature : D888F364
    -Accurately ripped (v2, confidence 2/2)
    Statistics
    Read error : 0
    Jitter error (maybe fixed) : 0
    Retry sector count : 0
    Damaged sector count : 0
    Track 10
    Filename : /Users/Shared/Music/Joe Negri - Uptown Elegance (2004) FLAC/10 Blues For Brody.flac
    Pre-gap length : 00: 01: 21
    Track gain : -1.31 dB
    Peak : 0.989746
    CRC32 hash (test run) : 71D6B139
    CRC32 hash : 71D6B139
    CRC32 hash (skip zero) : E43879FD
    AccurateRip v1 signature : E02C2390
    AccurateRip v2 signature : 22C63274
    -Accurately ripped (v2, confidence 2/2)
    Statistics
    Read error : 0
    Jitter error (maybe fixed) : 0
    Retry sector count : 0
    Damaged sector count : 0
    No errors occurred
    End of status report
    -----BEGIN XLD SIGNATURE-----
    FUJcKviQQvhLub.s7hCdSTyh14Dw4zWt91sSIm7FLdvhF7KQA5gUQ7lgirmILsI7KHo9v6Qi44dRhjxcFXUq50ifRH4sIc6m.fBsrGK
    -----END XLD SIGNATURE-----
    Время раздачи: c 15: 00 до 22: 00 (до появления первых 3-5 скачавших)


    Поглощение/вытеснение
    Только с согласия релизера

    Beijing65

    Joe Negri - Uptown Elegance (2004) MCG Jazz [FLAC|Lossless|tracks + .cue] <Mainstream Jazz, Big Band, Guitar Jazz>
    Рейтинг →
     (голосов: 1, оценка 4/5, голосовать можно 1 раз )

    Другие торренты по теме:

  • Nico Morelli Meets Mauro Negri - Colours (2002) [FLAC|Lossless]<Post-Bop, Free Improvisation>
  • Joe Negri - Guitars For Christmas (2003) MCG Jazz [FLAC|Lossless|tracks + .cue] <Mainstream Jazz, Guitar Jazz, Christmas>


    • Комментарии (0):

      Информация

      Информация

        Посетители, находящиеся в группе Гости, не могут оставлять комментарии в данной новости.

        ↓ Меню




        ↓ Опрос

        Вы добавили сайт в закладки?
        Да
        Нет


        Популярное

        ДиДюЛя - 17 альбомов (2000-2017) дискография [MP3|320 кб / с] <Фолк,Фламенко,Фьюжн>

        (скачиваний: 154)
        Чиж & Co - Коллекция легендарных песен (2014) [MP3|320 кб / с]<Rock> скачать через торрент бесплатно

        (скачиваний: 140)
        Стас Намин и Группа ЦВЕТЫ - 40 лет (Полная версия концерта) - Crocus Hall (Live) (2010) HDTVRip [AVC / H.264, 1080p]

        (скачиваний: 102)
        VA - Большая коллекция клипов в авто (2DIN) (2000-2016) SATRip

        (скачиваний: 100)
        The Beatles - Collection of video clips (1964-1983) HDTV [720p] скачать через торрент бесплатно

        (скачиваний: 52)
        Дима Билан - 12 альбомов, 4 сингла (2003 - 2017) [MP3|320 Kbps] <Pop>

        (скачиваний: 47)
        Александр Марцинкевич и группа Кабриолет - Лучших 50 песен (2016) Compilation [FLAC|Lossless|WEB-DL|tracks] <Chanson>

        (скачиваний: 43)
        Голубой огонек - "В первый час..." (1965) SATRip [H.264] [colourization] скачать через торрент бесплатно

        (скачиваний: 41)
        Демис Руссос - Лучшее (2010) 4CD [MP3|320 кб / с]<Pop>

        (скачиваний: 36)
        Канцлер Ги - 17 альбомов (2002-2017) [MP3|97-320 kbps]<Нео-Фолк / блюз>

        (скачиваний: 36)