.
Авторизация | Регистрация
bitok.xyz
» » Cradle Of Filth - Cruelty And The Beast (Re-Mistressed) (1998) Reissue, Remastered, 2019, Music For Nations [FLAC|Lossless|image + .cue] <Gothic Metal, Symphonic Black Metal> торрент скачать бесплатно


    Cradle Of Filth - Cruelty And The Beast (Re-Mistressed) (1998) Reissue, Remastered, 2019, Music For Nations [FLAC|Lossless|image + .cue] <Gothic Metal, Symphonic Black Metal> торрент скачать бесплатно

    Дата: 28-12-2019, 05:00 | .torrent скачали: 3

    Cradle Of Filth - Cruelty And The Beast (Re-Mistressed) (1998) Reissue, Remastered, 2019, Music For Nations [FLAC|Lossless|image + .cue] &ltGothic Metal, Symphonic Black Metal>Жанр: Gothic Metal, Symphonic Black Metal
    Издание: Music For Nations - 19075880882
    Особенность релиза: Reissue, Remastered
    Источник (релизер): acmodeu (MMT)
    Продолжительность: 01: 06: 06
    Кодек: FLAC
    Битрейт: Lossless
    Тип рипа: image + .cue
    Наличие сканов: Да, полные



    Треклист

    01. Once Upon Atrocity (1: 46)
    02. Thirteen Autumns And A Widow (7: 16)
    03. Cruelty Brought Thee Orchids (7: 19)
    04. Beneath The Howling Stars (7: 39)
    05. Venus In Fear (2: 21)
    06. Desire In Violent Overture (4: 17)
    07. The Twisted Nails Of Faith (6: 51)
    08. Bathory Aria (11: 01)
    09. Portrait Of The Dead Countess (2: 52)
    10. Lustmord And Wargasm (The Lick Of Carnivorous Winds) (7: 32)
    11. Hallowed Be Thy Name Iron Maiden (7: 14) Код: выделить всеExact Audio Copy V1.3 from 2. September 2016
    EAC extraction logfile from 18. November 2019, 20:13
    Cradle Of Filth/Cruelty And The Beast (Re-Mistressed)
    Used drive : PIONEER BD-RW BDR-206D Adapter: 1 ID: 0
    Read mode : Secure
    Utilize accurate stream : Yes
    Defeat audio cache : Yes
    Make use of C2 pointers : No
    Read offset correction : 667
    Overread into Lead-In and Lead-Out : No
    Fill up missing offset samples with silence : Yes
    Delete leading and trailing silent blocks : No
    Null samples used in CRC calculations : Yes
    Used interface : Native Win32 interface for Win NT 2000
    Used output format : User Defined Encoder
    Selected bitrate : 896 kBit/s
    Quality : High
    Add ID3 tag : No
    Command line compressor : C:Progs!Portablecodecsflac.exe
    Additional command line options : -8 -V -T ARTIST=%artist% -T TITLE=%title% -T ALBUM=%albumtitle% -T DATE=%year% -T TRACKNUMBER=%tracknr% -T GENRE=%genre% -T PERFORMER=%albuminterpret% -T COMPOSER=%composer% %haslyrics%--tag-from-file=LYRICS=%lyricsfile%%haslyrics% -T ALBUMARTIST=%albumartist% -T DISCNUMBER=%cdnumber% -T TOTALDISCS=%totalcds% -T TOTALTRACKS=%numtracks% -T COMMENT=Ripped by zombied %source% -o %dest%
    TOC of the extracted CD
    Track | Start | Length | Start sector | End sector
    ---------------------------------------------------------
    1 | 0:00.00 | 1:45.51 | 0 | 7925
    2 | 1:45.51 | 7:15.50 | 7926 | 40600
    3 | 9:01.26 | 7:19.28 | 40601 | 73553
    4 | 16:20.54 | 7:38.67 | 73554 | 107970
    5 | 23:59.46 | 2:20.60 | 107971 | 118530
    6 | 26:20.31 | 4:17.02 | 118531 | 137807
    7 | 30:37.33 | 6:50.46 | 137808 | 168603
    8 | 37:28.04 | 11:00.46 | 168604 | 218149
    9 | 48:28.50 | 2:51.71 | 218150 | 231045
    10 | 51:20.46 | 7:31.62 | 231046 | 264932
    11 | 58:52.33 | 7:13.47 | 264933 | 297454
    Range status and errors
    Selected range
    Filename W:UploadCradle Of Filth - 2019 - Cruelty And The Beast (Re-Mistressed)Cradle Of Filth - 2019 - Cruelty And The Beast (Re-Mistressed).wav
    Peak level 93.9 %
    Extraction speed 7.9 X
    Range quality 99.9 %
    Test CRC 75788FA6
    Copy CRC 75788FA6
    Copy OK
    No errors occurred
    AccurateRip summary
    Track 1 not present in database
    Track 2 not present in database
    Track 3 not present in database
    Track 4 not present in database
    Track 5 not present in database
    Track 6 not present in database
    Track 7 not present in database
    Track 8 not present in database
    Track 9 not present in database
    Track 10 not present in database
    Track 11 not present in database
    None of the tracks are present in the AccurateRip database
    End of status report
    ---- CUETools DB Plugin V2.1.6
    [CTDB TOCID: qXFXwdQQkz2c1T0mglN5lPuSrls-] found
    Submit result: already submitted
    Track | CTDB Status
    1 | (25/25) Accurately ripped
    2 | (25/25) Accurately ripped
    3 | (25/25) Accurately ripped
    4 | (25/25) Accurately ripped
    5 | (25/25) Accurately ripped
    6 | (25/25) Accurately ripped
    7 | (25/25) Accurately ripped
    8 | (25/25) Accurately ripped
    9 | (25/25) Accurately ripped
    10 | (25/25) Accurately ripped
    11 | (25/25) Accurately ripped
    ==== Log checksum 0CEB910FD7EC891D5A107940132669E15310EA59FD5BFF0FF5FCC41061D781A2 ====



    Поглощение/вытеснение
    Только с согласия релизера

    chaosman1986

    Cradle Of Filth - Cruelty And The Beast (Re-Mistressed) (1998) Reissue, Remastered, 2019, Music For Nations [FLAC|Lossless|image + .cue] <Gothic Metal, Symphonic Black Metal>
    Рейтинг →
     (голосов: 1, оценка 3/5, голосовать можно 1 раз )

    Другие торренты по теме:

  • Cradle Of Filth - 12 Albums, 6 Compilations (1994-2014) [MP3|320 кб / с]<Symphonic Black Metal, Death Metal, Extreme Gothic Metal>
  • Cradle Of Filth - 12 Albums, 6 Compilations (1994-2014) [MP3|320 кб / с]<Symphonic Black Metal, Death Metal, Extreme Gothic Metal>
  • Cradle Of Filth - Hammer Of The Witches (2015) [MP3|320 кб / с]<Black Metal, Gothic Metal> скачать через торрент бесплатно
  • Cradle Of Filth - Hammer Of The Witches (2015) [FLAC|Lossless|WEB-DL]<Symphonic Black Metal> скачать через торрент бесплатно
  • Cradle Of Filth - Dusk... And Her Embrace: The Original Sin (2016) [FLAC|Lossless|image + .cue] <Symphonic Black Metal, Gothic Metal>
  • Cradle Of Filth - Cryptoriana - The Seductiveness Of Decay (2017) [MP3|320 Kbps] <Symphonic Black Metal>
  • Cradle of Filth - Cryptoriana - The Seductiveness of Decay (2017) Limited Edition [FLAC|Lossless|image + .cue] <Symphonic Black, Extreme Gothic Metal>
  • Cradle of Filth - Cruelty And The Beast: Re-Mistressed (Remixed & Remastered) (2019) [MP3|320 Kbps] <Symphonic Black Metal>


    • Комментарии (0):

      Информация

      Информация

        Посетители, находящиеся в группе Гости, не могут оставлять комментарии в данной новости.

        ↓ Меню




        ↓ Опрос

        Вы добавили сайт в закладки?
        Да
        Нет


        Популярное

        ДиДюЛя - 17 альбомов (2000-2017) дискография [MP3|320 кб / с] <Фолк,Фламенко,Фьюжн>

        (скачиваний: 157)
        Чиж & Co - Коллекция легендарных песен (2014) [MP3|320 кб / с]<Rock> скачать через торрент бесплатно

        (скачиваний: 140)
        Стас Намин и Группа ЦВЕТЫ - 40 лет (Полная версия концерта) - Crocus Hall (Live) (2010) HDTVRip [AVC / H.264, 1080p]

        (скачиваний: 102)
        VA - Большая коллекция клипов в авто (2DIN) (2000-2016) SATRip

        (скачиваний: 100)
        The Beatles - Collection of video clips (1964-1983) HDTV [720p] скачать через торрент бесплатно

        (скачиваний: 54)
        Дима Билан - 12 альбомов, 4 сингла (2003 - 2017) [MP3|320 Kbps] <Pop>

        (скачиваний: 49)
        Александр Марцинкевич и группа Кабриолет - Лучших 50 песен (2016) Compilation [FLAC|Lossless|WEB-DL|tracks] <Chanson>

        (скачиваний: 43)
        Голубой огонек - "В первый час..." (1965) SATRip [H.264] [colourization] скачать через торрент бесплатно

        (скачиваний: 41)
        Демис Руссос - Лучшее (2010) 4CD [MP3|320 кб / с]<Pop>

        (скачиваний: 36)
        Канцлер Ги - 17 альбомов (2002-2017) [MP3|97-320 kbps]<Нео-Фолк / блюз>

        (скачиваний: 36)