.
Авторизация | Регистрация
bitok.xyz
» » Megadeth - Th1rt3en (2011) Reissue, Remastered, 2019, BMG Echo [FLAC|Lossless|image + .cue] <Thrash Metal, Heavy Metal> торрент скачать бесплатно


    Megadeth - Th1rt3en (2011) Reissue, Remastered, 2019, BMG Echo [FLAC|Lossless|image + .cue] <Thrash Metal, Heavy Metal> торрент скачать бесплатно

    Дата: 29-12-2019, 05:00 | .torrent скачали: 1

    Megadeth - Th1rt3en (2011) Reissue, Remastered, 2019, BMG Echo [FLAC|Lossless|image + .cue] &ltThrash Metal, Heavy Metal>Жанр: Thrash Metal, Heavy Metal
    Издание: BMG Echo - BMGCAT248CD
    Особенность релиза: Reissue, Remastered
    Источник (релизер): jarpomarx (MMT)
    Продолжительность: 01: 01: 58
    Кодек: FLAC
    Битрейт: Lossless
    Тип рипа: image + .cue
    Наличие сканов: Да, полные


    Треклист

    01. Sudden Death (5: 07)
    02. Public Enemy No. 1 (4: 15)
    03. Whose Life (Is It Anyways?) (3: 50)
    04. We the People (4: 33)
    05. Guns, Drugs, Money (4: 20)
    06. Never Dead (4: 33)
    07. New World Order (3: 56)
    08. Fast Lane (4: 04)
    09. Black Swan (4: 10)
    10. Wrecker (3: 52)
    11. Millennium of the Blind (4: 15)
    12. Deadly Nightshade (4: 55)
    13. 13 (5: 55)
    Bonus Track:
    14. Public Enemy No. 1 (live) (4: 11) Код: выделить все
    Exact Audio Copy V1.3 from 2. September 2016
    EAC extraction logfile from 23. August 2019, 14:48
    MEGADETH/Th1rt3en (Remastered 2019)
    Used drive : ASUS DRW-24D5MT Adapter: 1 ID: 0
    Read mode : Secure
    Utilize accurate stream : Yes
    Defeat audio cache : Yes
    Make use of C2 pointers : No
    Read offset correction : 6
    Overread into Lead-In and Lead-Out : No
    Fill up missing offset samples with silence : Yes
    Delete leading and trailing silent blocks : No
    Null samples used in CRC calculations : Yes
    Used interface : Native Win32 interface for Win NT 2000
    Used output format : User Defined Encoder
    Selected bitrate : 768 kBit/s
    Quality : High
    Add ID3 tag : No
    Command line compressor : C:Program Files (x86)Exact Audio CopyFLACFLAC.EXE
    Additional command line options : -6 -V -T ARTIST=%artist% -T TITLE=%title% -T ALBUM=%albumtitle% -T DATE=%year% -T TRACKNUMBER=%tracknr% -T GENRE=%genre% -T COMMENT=%comment% -T BAND=%albuminterpret% -T ALBUMARTIST=%albuminterpret% -T COMPOSER=%composer% %haslyrics%--tag-from-file=LYRICS=%lyricsfile%%haslyrics% -T DISCNUMBER=%cdnumber% -T TOTALDISCS=%totalcds% -T TOTALTRACKS=%numtracks% %hascover%--picture=%coverfile%%hascover% %source% -o %dest%
    TOC of the extracted CD
    Track | Start | Length | Start sector | End sector
    ---------------------------------------------------------
    1 | 0:00.00 | 5:07.23 | 0 | 23047
    2 | 5:07.23 | 4:15.25 | 23048 | 42197
    3 | 9:22.48 | 3:50.04 | 42198 | 59451
    4 | 13:12.52 | 4:33.22 | 59452 | 79948
    5 | 17:45.74 | 4:19.61 | 79949 | 99434
    6 | 22:05.60 | 4:32.51 | 99435 | 119885
    7 | 26:38.36 | 3:56.37 | 119886 | 137622
    8 | 30:34.73 | 4:04.01 | 137623 | 155923
    9 | 34:38.74 | 4:10.09 | 155924 | 174682
    10 | 38:49.08 | 3:51.60 | 174683 | 192067
    11 | 42:40.68 | 4:15.28 | 192068 | 211220
    12 | 46:56.21 | 4:55.34 | 211221 | 233379
    13 | 51:51.55 | 5:54.44 | 233380 | 259973
    14 | 57:46.24 | 4:11.19 | 259974 | 278817
    Range status and errors
    Selected range
    Filename E:MúsicaEACMegadethMEGADETH - Th1rt3en (Remastered 2019).wav
    Peak level 100.0 %
    Extraction speed 1.8 X
    Range quality 100.0 %
    Test CRC AFFB05F7
    Copy CRC AFFB05F7
    Copy OK
    No errors occurred
    AccurateRip summary
    Track 1 not present in database
    Track 2 not present in database
    Track 3 not present in database
    Track 4 not present in database
    Track 5 not present in database
    Track 6 not present in database
    Track 7 not present in database
    Track 8 not present in database
    Track 9 not present in database
    Track 10 not present in database
    Track 11 not present in database
    Track 12 not present in database
    Track 13 not present in database
    Track 14 not present in database
    None of the tracks are present in the AccurateRip database
    End of status report
    ---- CUETools DB Plugin V2.1.6
    [CTDB TOCID: Wi2CvqI5ORm24qgaURI4eb_YmzQ-] found
    Submit result: Wi2CvqI5ORm24qgaURI4eb_YmzQ- has been confirmed
    Track | CTDB Status
    1 | (4/4) Accurately ripped
    2 | (4/4) Accurately ripped
    3 | (4/4) Accurately ripped
    4 | (4/4) Accurately ripped
    5 | (4/4) Accurately ripped
    6 | (4/4) Accurately ripped
    7 | (4/4) Accurately ripped
    8 | (4/4) Accurately ripped
    9 | (4/4) Accurately ripped
    10 | (4/4) Accurately ripped
    11 | (4/4) Accurately ripped
    12 | (4/4) Accurately ripped
    13 | (4/4) Accurately ripped
    14 | (4/4) Accurately ripped
    ==== Log checksum CC58D358C2342CE8C1815241DAD5E7A0D5500E5D99CF8216ACA2E8ECC9713A57 ====
    YouTubeYouTube


    Поглощение/вытеснение
    Только с согласия релизера

    chaosman1986

    Megadeth - Th1rt3en (2011) Reissue, Remastered, 2019, BMG Echo [FLAC|Lossless|image + .cue] <Thrash Metal, Heavy Metal>
    Рейтинг →
     (голосов: 1, оценка 5/5, голосовать можно 1 раз )

    Другие торренты по теме:

  • Megadeth - Endgame (2009) Reissue, Remastered, 2019, BMG Echo [FLAC|Lossless|image + .cue] <Thrash Metal, Heavy Metal>


    • Комментарии (0):

      Информация

      Информация

        Посетители, находящиеся в группе Гости, не могут оставлять комментарии в данной новости.

        ↓ Меню




        ↓ Опрос

        Вы добавили сайт в закладки?
        Да
        Нет


        Популярное

        ДиДюЛя - 17 альбомов (2000-2017) дискография [MP3|320 кб / с] <Фолк,Фламенко,Фьюжн>

        (скачиваний: 155)
        Чиж & Co - Коллекция легендарных песен (2014) [MP3|320 кб / с]<Rock> скачать через торрент бесплатно

        (скачиваний: 140)
        Стас Намин и Группа ЦВЕТЫ - 40 лет (Полная версия концерта) - Crocus Hall (Live) (2010) HDTVRip [AVC / H.264, 1080p]

        (скачиваний: 102)
        VA - Большая коллекция клипов в авто (2DIN) (2000-2016) SATRip

        (скачиваний: 100)
        The Beatles - Collection of video clips (1964-1983) HDTV [720p] скачать через торрент бесплатно

        (скачиваний: 53)
        Дима Билан - 12 альбомов, 4 сингла (2003 - 2017) [MP3|320 Kbps] <Pop>

        (скачиваний: 47)
        Александр Марцинкевич и группа Кабриолет - Лучших 50 песен (2016) Compilation [FLAC|Lossless|WEB-DL|tracks] <Chanson>

        (скачиваний: 43)
        Голубой огонек - "В первый час..." (1965) SATRip [H.264] [colourization] скачать через торрент бесплатно

        (скачиваний: 41)
        Демис Руссос - Лучшее (2010) 4CD [MP3|320 кб / с]<Pop>

        (скачиваний: 36)
        Канцлер Ги - 17 альбомов (2002-2017) [MP3|97-320 kbps]<Нео-Фолк / блюз>

        (скачиваний: 36)