.
Авторизация | Регистрация
bitok.xyz
» » Megadeth - Endgame (2009) Reissue, Remastered, 2019, BMG Echo [FLAC|Lossless|image + .cue] <Thrash Metal, Heavy Metal> торрент скачать бесплатно


    Megadeth - Endgame (2009) Reissue, Remastered, 2019, BMG Echo [FLAC|Lossless|image + .cue] <Thrash Metal, Heavy Metal> торрент скачать бесплатно

    Дата: 29-12-2019, 05:00 | .torrent скачали: 1

    Megadeth - Endgame (2009) Reissue, Remastered, 2019, BMG Echo [FLAC|Lossless|image + .cue] &ltThrash Metal, Heavy Metal>Жанр: Thrash Metal, Heavy Metal
    Издание: BMG Echo - BMGCAT247CD
    Особенность релиза: Reissue, Remastered
    Источник (релизер): jarpomarx (MMT)
    Продолжительность: 00: 50: 22
    Кодек: FLAC
    Битрейт: Lossless
    Тип рипа: image + .cue
    Наличие сканов: Да, полные


    Треклист

    01. Dialectic Chaos (2: 26)
    02. This Day We Fight! (3: 28)
    03. 44 Minutes (4: 37)
    04. 1, 320\' (3: 50)
    05. Bite the Hand (4: 01)
    06. Bodies (3: 34)
    07. Endgame (5: 57)
    08. The Hardest Part of Letting Go... Sealed With a Kiss (4: 42)
    09. Head Crusher (3: 26)
    10. How the Story Ends (4: 29)
    11. The Right to Go Insane (4: 21)
    Bonus Track:
    12. Washington Is Next! (live) (5: 31) Код: выделить все
    Exact Audio Copy V1.3 from 2. September 2016
    EAC extraction logfile from 23. August 2019, 15:51
    MEGADETH/Endgame (Remastered 2019)
    Used drive : ASUS DRW-24D5MT Adapter: 1 ID: 0
    Read mode : Secure
    Utilize accurate stream : Yes
    Defeat audio cache : Yes
    Make use of C2 pointers : No
    Read offset correction : 6
    Overread into Lead-In and Lead-Out : No
    Fill up missing offset samples with silence : Yes
    Delete leading and trailing silent blocks : No
    Null samples used in CRC calculations : Yes
    Used interface : Native Win32 interface for Win NT 2000
    Used output format : User Defined Encoder
    Selected bitrate : 768 kBit/s
    Quality : High
    Add ID3 tag : No
    Command line compressor : C:Program Files (x86)Exact Audio CopyFLACFLAC.EXE
    Additional command line options : -6 -V -T ARTIST=%artist% -T TITLE=%title% -T ALBUM=%albumtitle% -T DATE=%year% -T TRACKNUMBER=%tracknr% -T GENRE=%genre% -T COMMENT=%comment% -T BAND=%albuminterpret% -T ALBUMARTIST=%albuminterpret% -T COMPOSER=%composer% %haslyrics%--tag-from-file=LYRICS=%lyricsfile%%haslyrics% -T DISCNUMBER=%cdnumber% -T TOTALDISCS=%totalcds% -T TOTALTRACKS=%numtracks% %hascover%--picture=%coverfile%%hascover% %source% -o %dest%
    TOC of the extracted CD
    Track | Start | Length | Start sector | End sector
    ---------------------------------------------------------
    1 | 0:00.00 | 2:26.32 | 0 | 10981
    2 | 2:26.32 | 3:27.38 | 10982 | 26544
    3 | 5:53.70 | 4:37.11 | 26545 | 47330
    4 | 10:31.06 | 3:49.63 | 47331 | 64568
    5 | 14:20.69 | 4:01.01 | 64569 | 82644
    6 | 18:21.70 | 3:34.06 | 82645 | 98700
    7 | 21:56.01 | 5:56.74 | 98701 | 125474
    8 | 27:53.00 | 4:41.65 | 125475 | 146614
    9 | 32:34.65 | 3:26.03 | 146615 | 162067
    10 | 36:00.68 | 4:28.63 | 162068 | 182230
    11 | 40:29.56 | 4:20.59 | 182231 | 201789
    12 | 44:50.40 | 5:31.03 | 201790 | 226617
    Range status and errors
    Selected range
    Filename E:MúsicaEACMegadethMEGADETH - Endgame (Remastered 2019).wav
    Peak level 98.6 %
    Extraction speed 1.7 X
    Range quality 99.9 %
    Test CRC CC8EDA07
    Copy CRC CC8EDA07
    Copy OK
    No errors occurred
    AccurateRip summary
    Track 1 not present in database
    Track 2 not present in database
    Track 3 not present in database
    Track 4 not present in database
    Track 5 not present in database
    Track 6 not present in database
    Track 7 not present in database
    Track 8 not present in database
    Track 9 not present in database
    Track 10 not present in database
    Track 11 not present in database
    Track 12 not present in database
    None of the tracks are present in the AccurateRip database
    End of status report
    ---- CUETools DB Plugin V2.1.6
    [CTDB TOCID: ktn4DcL28q9UcMnapTDHW__SdVE-] found
    Submit result: ktn4DcL28q9UcMnapTDHW__SdVE- has been confirmed
    Track | CTDB Status
    1 | (4/4) Accurately ripped
    2 | (4/4) Accurately ripped
    3 | (4/4) Accurately ripped
    4 | (4/4) Accurately ripped
    5 | (4/4) Accurately ripped
    6 | (4/4) Accurately ripped
    7 | (4/4) Accurately ripped
    8 | (4/4) Accurately ripped
    9 | (4/4) Accurately ripped
    10 | (4/4) Accurately ripped
    11 | (4/4) Accurately ripped
    12 | (4/4) Accurately ripped
    ==== Log checksum 3307501E0EFDE645B91C9472B3DF5AFE425EB1B47239BB91933D4E70B2B5C35C ====
    YouTubeYouTube


    Поглощение/вытеснение
    Только с согласия релизера

    chaosman1986

    Megadeth - Endgame (2009) Reissue, Remastered, 2019, BMG Echo [FLAC|Lossless|image + .cue] <Thrash Metal, Heavy Metal>
    Рейтинг →
     (голосов: 1, оценка 5/5, голосовать можно 1 раз )

    Другие торренты по теме:

  • Megadeth - Countdown To Extinction (1992) [FLAC 2.0 24 / 96|traks(Vinil-Rip)]<Rock> скачать через торрент бесплатно
  • Megadeth - Fatal Illusion (2015) Single [MP3|320 кб / с]<Heavy Metal, Thrash Metal> скачать через торрент бесплатно
  • Megadeth - Fatal Illusion (2015) Single, Tradecraft [FLAC|image + .cue] <Heavy Metal, Thrash Metal> скачать через торрент бесплатно
  • Megadeth - Dystopia (2016) [MP3|192 кб / с] <Thrash Metal>
  • Megadeth - Dystopia (2016) [MP3|320 кб / с] <Thrash Metal>
  • Megadeth - Dystopia (2016) [FLAC|Lossless|WEB-DL] <Thrash Metal>
  • Megadeth - Dystopia (2016) Best Buy Edition [FLAC|Lossless|tracks + .cue] <Thrash Metal>
  • Megadeth - Dystopia (2016) Best Buy Edition [MP3|320 кб / с] <Thrash Metal>


    • Комментарии (0):

      Информация

      Информация

        Посетители, находящиеся в группе Гости, не могут оставлять комментарии в данной новости.

        ↓ Меню




        ↓ Опрос

        Вы добавили сайт в закладки?
        Да
        Нет


        Популярное

        ДиДюЛя - 17 альбомов (2000-2017) дискография [MP3|320 кб / с] <Фолк,Фламенко,Фьюжн>

        (скачиваний: 154)
        Чиж & Co - Коллекция легендарных песен (2014) [MP3|320 кб / с]<Rock> скачать через торрент бесплатно

        (скачиваний: 140)
        Стас Намин и Группа ЦВЕТЫ - 40 лет (Полная версия концерта) - Crocus Hall (Live) (2010) HDTVRip [AVC / H.264, 1080p]

        (скачиваний: 102)
        VA - Большая коллекция клипов в авто (2DIN) (2000-2016) SATRip

        (скачиваний: 100)
        The Beatles - Collection of video clips (1964-1983) HDTV [720p] скачать через торрент бесплатно

        (скачиваний: 52)
        Дима Билан - 12 альбомов, 4 сингла (2003 - 2017) [MP3|320 Kbps] <Pop>

        (скачиваний: 47)
        Александр Марцинкевич и группа Кабриолет - Лучших 50 песен (2016) Compilation [FLAC|Lossless|WEB-DL|tracks] <Chanson>

        (скачиваний: 43)
        Голубой огонек - "В первый час..." (1965) SATRip [H.264] [colourization] скачать через торрент бесплатно

        (скачиваний: 41)
        Канцлер Ги - 17 альбомов (2002-2017) [MP3|97-320 kbps]<Нео-Фолк / блюз>

        (скачиваний: 36)
        Демис Руссос - Лучшее (2010) 4CD [MP3|320 кб / с]<Pop>

        (скачиваний: 36)