.
Авторизация | Регистрация
bitok.xyz
» » Les Discrets - Septembre Et Ses Dernieres Pensees (2010) Limited Edition [FLAC|Lossless|image + .cue] <Post Rock, Shoegaze> торрент скачать бесплатно


    Les Discrets - Septembre Et Ses Dernieres Pensees (2010) Limited Edition [FLAC|Lossless|image + .cue] <Post Rock, Shoegaze> торрент скачать бесплатно

    Дата: 30-12-2019, 05:00 | .torrent скачали: 0

    Les Discrets - Septembre Et Ses Dernieres Pensees (2010) Limited Edition [FLAC|Lossless|image + .cue] &ltPost Rock, Shoegaze>Жанр: Post Rock, Shoegaze
    Издание: Prophecy Productions - PRO 103
    Особенность релиза: Limited Edition, Digipak
    Источник (релизер): dimonamart
    Продолжительность: 00: 43: 18
    Кодек: FLAC
    Битрейт: Lossless
    Тип рипа: image + .cue
    Наличие сканов: Да, полные


    Треклист

    01. L\'Envol des Corbeaux (1: 27)
    02. L\'Echappee (4: 04)
    03. Les feuilles de l\'olivier (4: 36)
    04. Song for Mountains (5: 59)
    05. Sur les Quais (3: 04)
    06. Effet de Nuit (5: 55)
    07. Septembre et ses dernieres Pensees (2: 29)
    08. Chanson d\'Automne (7: 40)
    09. Svipdagr Freyja (3: 59)
    10. Une Matinee d\'Hiver (4: 07) Код: выделить все
    Exact Audio Copy V1.0 beta 2 from 29. April 2011
    EAC extraction logfile from 28. May 2011, 1:57
    Les Discrets/Septembre et ses dernieres Pensees
    Used drive : PIONEER DVD-RW DVR-112D Adapter: 0 ID: 0
    Read mode : Secure
    Utilize accurate stream : Yes
    Defeat audio cache : Yes
    Make use of C2 pointers : No
    Read offset correction : 48
    Overread into Lead-In and Lead-Out : No
    Fill up missing offset samples with silence : Yes
    Delete leading and trailing silent blocks : No
    Null samples used in CRC calculations : Yes
    Used interface : Native Win32 interface for Win NT 2000
    Used output format : User Defined Encoder
    Selected bitrate : 128 kBit/s
    Quality : High
    Add ID3 tag : No
    Command line compressor : C:Program Files (x86)Exact Audio CopyFLACFLAC.EXE
    Additional command line options : -8 -V -T ARTIST=%artist% -T TITLE=%title% -T ALBUM=%albumtitle% -T DATE=%year% -T TRACKNUMBER=%tracknr% -T GENRE=%genre% -T COMMENT=EAC FLAC -8 %source%
    TOC of the extracted CD
    Track | Start | Length | Start sector | End sector
    ---------------------------------------------------------
    1 | 0:00.00 | 1:26.51 | 0 | 6500
    2 | 1:26.51 | 4:03.39 | 6501 | 24764
    3 | 5:30.15 | 4:36.08 | 24765 | 45472
    4 | 10:06.23 | 5:58.65 | 45473 | 72387
    5 | 16:05.13 | 3:03.56 | 72388 | 86168
    6 | 19:08.69 | 5:54.53 | 86169 | 112771
    7 | 25:03.47 | 2:28.65 | 112772 | 123936
    8 | 27:32.37 | 7:39.73 | 123937 | 158434
    9 | 35:12.35 | 3:58.49 | 158435 | 176333
    10 | 39:11.09 | 4:06.72 | 176334 | 194855
    Range status and errors
    Selected range
    Filename H:Les Discrets - Septembre et ses dernieres PenseesLes Discrets - Septembre et ses dernieres Pensees.wav
    Peak level 99.0 %
    Extraction speed 7.1 X
    Range quality 100.0 %
    Test CRC EBD8CBAD
    Copy CRC EBD8CBAD
    Copy OK
    No errors occurred
    AccurateRip summary
    Track 1 accurately ripped (confidence 2) [F32B8C8E] (AR v2)
    Track 2 accurately ripped (confidence 2) [2CB9290D] (AR v2)
    Track 3 accurately ripped (confidence 2) [D670C55A] (AR v2)
    Track 4 accurately ripped (confidence 2) [310347F0] (AR v2)
    Track 5 accurately ripped (confidence 2) [FD53C8C9] (AR v2)
    Track 6 accurately ripped (confidence 2) [E698EEBA] (AR v2)
    Track 7 accurately ripped (confidence 2) [DA18AE98] (AR v2)
    Track 8 accurately ripped (confidence 2) [EE565DF9] (AR v2)
    Track 9 accurately ripped (confidence 2) [3F748EE0] (AR v2)
    Track 10 accurately ripped (confidence 2) [0774224C] (AR v2)
    All tracks accurately ripped
    End of status report
    ==== Log checksum 80DC1DD167C1614A03B3DC6ECAE3C20C8C568EBED3AB5AAE5BC204A165276639 ====


    Les Discrets - Septembre Et Ses Dernieres Pensees (2010) Limited Edition [FLAC|Lossless|image + .cue] <Post Rock, Shoegaze>
    Рейтинг →
     (голосов: 1, оценка 5/5, голосовать можно 1 раз )

    Другие торренты по теме:

  • Les Discrets - Predateurs (Prédateurs) (2017) Deluxe Edition [MP3|320 Kbps] <Post-Rock, Shoegaze>
  • Les Discrets - Prédateurs (Predateurs) (2017) [FLAC|Lossless|Web-DL|tracks] <Post Rock, Shoegaze, Blackgaze>


    • Комментарии (0):

      Информация

      Информация

        Посетители, находящиеся в группе Гости, не могут оставлять комментарии в данной новости.

        ↓ Меню




        ↓ Опрос

        Вы добавили сайт в закладки?
        Да
        Нет


        Популярное

        ДиДюЛя - 17 альбомов (2000-2017) дискография [MP3|320 кб / с] <Фолк,Фламенко,Фьюжн>

        (скачиваний: 157)
        Чиж & Co - Коллекция легендарных песен (2014) [MP3|320 кб / с]<Rock> скачать через торрент бесплатно

        (скачиваний: 140)
        Стас Намин и Группа ЦВЕТЫ - 40 лет (Полная версия концерта) - Crocus Hall (Live) (2010) HDTVRip [AVC / H.264, 1080p]

        (скачиваний: 102)
        VA - Большая коллекция клипов в авто (2DIN) (2000-2016) SATRip

        (скачиваний: 100)
        The Beatles - Collection of video clips (1964-1983) HDTV [720p] скачать через торрент бесплатно

        (скачиваний: 54)
        Дима Билан - 12 альбомов, 4 сингла (2003 - 2017) [MP3|320 Kbps] <Pop>

        (скачиваний: 49)
        Александр Марцинкевич и группа Кабриолет - Лучших 50 песен (2016) Compilation [FLAC|Lossless|WEB-DL|tracks] <Chanson>

        (скачиваний: 43)
        Голубой огонек - "В первый час..." (1965) SATRip [H.264] [colourization] скачать через торрент бесплатно

        (скачиваний: 41)
        Демис Руссос - Лучшее (2010) 4CD [MP3|320 кб / с]<Pop>

        (скачиваний: 36)
        Канцлер Ги - 17 альбомов (2002-2017) [MP3|97-320 kbps]<Нео-Фолк / блюз>

        (скачиваний: 36)