.
Авторизация | Регистрация
bitok.xyz
» » Alcest - 6 Albums, 2 EPs (2005-2019) [FLAC|Lossless|image + .cue] <Shoegaze, Blackgaze, Post Rock, Black Metal> торрент скачать бесплатно


    Alcest - 6 Albums, 2 EPs (2005-2019) [FLAC|Lossless|image + .cue] <Shoegaze, Blackgaze, Post Rock, Black Metal> торрент скачать бесплатно

    Дата: 30-12-2019, 05:00 | .torrent скачали: 0

    Alcest - 6 Albums, 2 EPs (2005-2019) [FLAC|Lossless|image + .cue] &ltShoegaze, Blackgaze, Post Rock, Black Metal>Издание: Prophecy Productions - PRO114
    Особенность релиза: EP, Reissue
    Продолжительноcть: 00: 54: 51

    Треклиcт:
    01. Le Secret (2011) (13: 34)
    02. Elevation (2011) (13: 56)
    03. Le Secret (2005) (14: 34)
    04. Elevation (2005) (12: 46) Код: выделить всеExact Audio Copy V1.0 beta 1 from 15. November 2010
    EAC extraction logfile from 2. June 2011, 13:36
    Alcest/Le Secret
    Used drive : Optiarc DVD RW AD-5240S Adapter: 1 ID: 1
    Read mode : Secure
    Utilize accurate stream : Yes
    Defeat audio cache : Yes
    Make use of C2 pointers : No
    Read offset correction : 48
    Overread into Lead-In and Lead-Out : No
    Fill up missing offset samples with silence : Yes
    Delete leading and trailing silent blocks : No
    Null samples used in CRC calculations : Yes
    Used interface : Native Win32 interface for Win NT 2000
    Used output format : Internal WAV Routines
    Sample format : 44.100 Hz; 16 Bit; Stereo
    TOC of the extracted CD
    Track | Start | Length | Start sector | End sector
    ---------------------------------------------------------
    1 | 0:00.00 | 13:34.23 | 0 | 61072
    2 | 13:34.23 | 13:56.21 | 61073 | 123793
    3 | 27:30.44 | 14:33.66 | 123794 | 189334
    4 | 42:04.35 | 12:46.27 | 189335 | 246811
    Range status and errors
    Selected range
    Filename C:Documents and SettingsuserМои документыМоя музыкаAlcest - Le Secret.wav
    Peak level 100.0 %
    Extraction speed 0.9 X
    Range quality 100.0 %
    Test CRC EEE156EF
    Copy CRC EEE156EF
    Copy OK
    No errors occurred
    AccurateRip summary
    Track 1 not present in database
    Track 2 not present in database
    Track 3 not present in database
    Track 4 not present in database
    None of the tracks are present in the AccurateRip database
    End of status report
    ==== Log checksum B8404E2FEF4E8E1CFD9A318D9FE33C3CF76808186D10AEE3488A5161B93A5F5B ====


    Alcest - 6 Albums, 2 EPs (2005-2019) [FLAC|Lossless|image + .cue] <Shoegaze, Blackgaze, Post Rock, Black Metal>
    Рейтинг →
     (голосов: 1, оценка 4/5, голосовать можно 1 раз )

    Другие торренты по теме:

  • Alcest - Kodama (2016) Deluxe Edition [MP3|320 Kbps] <Post-Black Metal, Shoegaze>
  • Alcest - Kodama (2016) Luxus Edition [FLAC|Lossless|tracks + .cue] <Blackgaze, Post Metal, Black Metal>
  • Alcest - Spiritual Instinct (2019) [FLAC|Lossless|Web-DL|tracks] <Post-Metal, Blackgaze, Shoegaze>


    • Комментарии (0):

      Информация

      Информация

        Посетители, находящиеся в группе Гости, не могут оставлять комментарии в данной новости.

        ↓ Меню




        ↓ Опрос

        Вы добавили сайт в закладки?
        Да
        Нет


        Популярное

        ДиДюЛя - 17 альбомов (2000-2017) дискография [MP3|320 кб / с] <Фолк,Фламенко,Фьюжн>

        (скачиваний: 154)
        Чиж & Co - Коллекция легендарных песен (2014) [MP3|320 кб / с]<Rock> скачать через торрент бесплатно

        (скачиваний: 140)
        Стас Намин и Группа ЦВЕТЫ - 40 лет (Полная версия концерта) - Crocus Hall (Live) (2010) HDTVRip [AVC / H.264, 1080p]

        (скачиваний: 102)
        VA - Большая коллекция клипов в авто (2DIN) (2000-2016) SATRip

        (скачиваний: 100)
        The Beatles - Collection of video clips (1964-1983) HDTV [720p] скачать через торрент бесплатно

        (скачиваний: 52)
        Дима Билан - 12 альбомов, 4 сингла (2003 - 2017) [MP3|320 Kbps] <Pop>

        (скачиваний: 47)
        Александр Марцинкевич и группа Кабриолет - Лучших 50 песен (2016) Compilation [FLAC|Lossless|WEB-DL|tracks] <Chanson>

        (скачиваний: 43)
        Голубой огонек - "В первый час..." (1965) SATRip [H.264] [colourization] скачать через торрент бесплатно

        (скачиваний: 41)
        Демис Руссос - Лучшее (2010) 4CD [MP3|320 кб / с]<Pop>

        (скачиваний: 36)
        Канцлер Ги - 17 альбомов (2002-2017) [MP3|97-320 kbps]<Нео-Фолк / блюз>

        (скачиваний: 36)