.
Авторизация | Регистрация
bitok.xyz
» » Michael Feinstein - The Sinatra Project, Vol. II: The Good Life (2011) Concord Jazz [FLAC|Lossless|tracks + .cue] <Vocal Jazz> торрент скачать бесплатно


    Michael Feinstein - The Sinatra Project, Vol. II: The Good Life (2011) Concord Jazz [FLAC|Lossless|tracks + .cue] <Vocal Jazz> торрент скачать бесплатно

    Дата: 30-12-2019, 05:00 | .torrent скачали: 0

    Michael Feinstein - The Sinatra Project, Vol. II: The Good Life (2011) Concord Jazz [FLAC|Lossless|tracks + .cue] &ltVocal Jazz>Жанр: Vocal Jazz
    Издание: Concord Jazz - CJA-33097-02
    Продолжительность: 00: 41: 17
    Кодек: FLAC (tracks+.cue)
    Битрейт: Lossless
    Источник (релизер): catfish27
    Страна-производитель диска: USA
    Наличие сканов в содержимом раздачи: да

    Треклист

    01. Thirteen Women 3: 03
    02. Hallelujah I Love Her So 2: 47
    03. C\'est Comme Ca 2: 53
    04. Is You Is or Is You Ain\'t My Baby? 3: 17
    05. Sway 3: 32
    06. Luck Be a Lady/All I Need Is the Girl 3: 52
    07. I\'ll Be Around 4: 23
    08. The Way You Look Tonight 4: 01
    09. The Lady Is a Tramp 4: 22
    10. For Once in My Life 3: 16
    11. The Good Life 3: 04
    12. Once in a Lifetime 2: 46
    X Lossless Decoder version 20181019 (151.1)
    XLD extraction logfile from 2019-05-13 13: 25: 08 -0700
    Michael Feinstein/The Sinatra Project, Vol. II: The Good Life
    Used drive : PIONEER BD-RW BDR-XD05 (revision 3.10)
    Media type : Pressed CD
    Ripper mode : XLD Secure Ripper
    Disable audio cache : OK for the drive with a cache less than 1375KiB
    Make use of C2 pointers : NO
    Read offset correction : 667
    Max retry count : 100
    Gap status : Analyzed, Appended (except HTOA)
    TOC of the extracted CD
    Track | Start | Length | Start sector | End sector
    ---------------------------------------------------------
    1 | 00: 00: 00 | 03: 02: 63 | 0 | 13712
    2 | 03: 02: 63 | 02: 47: 04 | 13713 | 26241
    3 | 05: 49: 67 | 02: 53: 12 | 26242 | 39228
    4 | 08: 43: 04 | 03: 17: 17 | 39229 | 54020
    5 | 12: 00: 21 | 03: 32: 23 | 54021 | 69943
    6 | 15: 32: 44 | 03: 52: 24 | 69944 | 87367
    7 | 19: 24: 68 | 04: 23: 17 | 87368 | 107109
    8 | 23: 48: 10 | 04: 00: 55 | 107110 | 125164
    9 | 27: 48: 65 | 04: 21: 55 | 125165 | 144794
    10 | 32: 10: 45 | 03: 16: 07 | 144795 | 159501
    11 | 35: 26: 52 | 03: 04: 11 | 159502 | 173312
    12 | 38: 30: 63 | 02: 46: 35 | 173313 | 185797
    AccurateRip Summary (DiscID: 00121998-00ab9745-8709ad0c)
    Track 01 : OK (v2, confidence 6/6)
    Track 02 : OK (v2, confidence 6/6)
    Track 03 : OK (v2, confidence 6/6)
    Track 04 : OK (v2, confidence 6/6)
    Track 05 : OK (v2, confidence 6/6)
    Track 06 : OK (v2, confidence 6/6)
    Track 07 : OK (v2, confidence 6/6)
    Track 08 : OK (v2, confidence 6/6)
    Track 09 : OK (v2, confidence 6/6)
    Track 10 : OK (v2, confidence 6/6)
    Track 11 : OK (v2, confidence 6/6)
    Track 12 : OK (v2, confidence 6/6)
    -All tracks accurately ripped.
    All Tracks
    Album gain : -7.87 dB
    Peak : 0.999969
    Statistics
    Read error : 0
    Jitter error (maybe fixed) : 0
    Retry sector count : 0
    Damaged sector count : 0
    Track 01
    Filename : /Volumes/Hollywood and Vine/Rips/Michael Feinstein - The Sinatra Project, Vol. IIпјљ The Good Life (2011) FLAC/01 Thirteen Women.flac
    Pre-gap length : 00: 02: 00
    Track gain : -8.63 dB
    Peak : 0.999969
    CRC32 hash (test run) : 818F99F4
    CRC32 hash : 818F99F4
    CRC32 hash (skip zero) : 40559DB3
    AccurateRip v1 signature : D4D5CABC
    AccurateRip v2 signature : 9A1B19E5
    -Accurately ripped (v2, confidence 6/6)
    Statistics
    Read error : 0
    Jitter error (maybe fixed) : 0
    Retry sector count : 0
    Damaged sector count : 0
    Track 02
    Filename : /Volumes/Hollywood and Vine/Rips/Michael Feinstein - The Sinatra Project, Vol. IIпјљ The Good Life (2011) FLAC/02 Hallelujah I Love Her So.flac
    Track gain : -8.21 dB
    Peak : 0.999969
    CRC32 hash (test run) : 6DE67E59
    CRC32 hash : 6DE67E59
    CRC32 hash (skip zero) : 711D5F69
    AccurateRip v1 signature : A59AB2B9
    AccurateRip v2 signature : 7A4DD1EF
    -Accurately ripped (v2, confidence 6/6)
    Statistics
    Read error : 0
    Jitter error (maybe fixed) : 0
    Retry sector count : 0
    Damaged sector count : 0
    Track 03
    Filename : /Volumes/Hollywood and Vine/Rips/Michael Feinstein - The Sinatra Project, Vol. IIпјљ The Good Life (2011) FLAC/03 C\'est Comme Ca.flac
    Track gain : -2.45 dB
    Peak : 0.959839
    CRC32 hash (test run) : 3A66C42E
    CRC32 hash : 3A66C42E
    CRC32 hash (skip zero) : AB07DB3E
    AccurateRip v1 signature : 0478D064
    AccurateRip v2 signature : 11A3DFA5
    -Accurately ripped (v2, confidence 6/6)
    Statistics
    Read error : 0
    Jitter error (maybe fixed) : 0
    Retry sector count : 0
    Damaged sector count : 0
    Track 04
    Filename : /Volumes/Hollywood and Vine/Rips/Michael Feinstein - The Sinatra Project, Vol. IIпјљ The Good Life (2011) FLAC/04 Is You Is or Is You Ain\'t My Baby_.flac
    Track gain : -8.91 dB
    Peak : 0.999969
    CRC32 hash (test run) : 34966F86
    CRC32 hash : 34966F86
    CRC32 hash (skip zero) : 186A3CDA
    AccurateRip v1 signature : 72393927
    AccurateRip v2 signature : A82B5F2E
    -Accurately ripped (v2, confidence 6/6)
    Statistics
    Read error : 0
    Jitter error (maybe fixed) : 0
    Retry sector count : 0
    Damaged sector count : 0
    Track 05
    Filename : /Volumes/Hollywood and Vine/Rips/Michael Feinstein - The Sinatra Project, Vol. IIпјљ The Good Life (2011) FLAC/05 Sway.flac
    Track gain : -8.86 dB
    Peak : 0.998047
    CRC32 hash (test run) : B4D0CDCB
    CRC32 hash : B4D0CDCB
    CRC32 hash (skip zero) : 975625BD
    AccurateRip v1 signature : D58B37B7
    AccurateRip v2 signature : D1CB8BA5
    -Accurately ripped (v2, confidence 6/6)
    Statistics
    Read error : 0
    Jitter error (maybe fixed) : 0
    Retry sector count : 0
    Damaged sector count : 0
    Track 06
    Filename : /Volumes/Hollywood and Vine/Rips/Michael Feinstein - The Sinatra Project, Vol. IIпјљ The Good Life (2011) FLAC/06 Luck Be a LadyпјЏAll I Need is the Girl.flac
    Track gain : -9.29 dB
    Peak : 0.999969
    CRC32 hash (test run) : 4E88D93B
    CRC32 hash : 4E88D93B
    CRC32 hash (skip zero) : 0E59E639
    AccurateRip v1 signature : 18A15622
    AccurateRip v2 signature : 23F35143
    -Accurately ripped (v2, confidence 6/6)
    Statistics
    Read error : 0
    Jitter error (maybe fixed) : 0
    Retry sector count : 0
    Damaged sector count : 0
    Track 07
    Filename : /Volumes/Hollywood and Vine/Rips/Michael Feinstein - The Sinatra Project, Vol. IIпјљ The Good Life (2011) FLAC/07 I\'ll Be Around.flac
    Track gain : -2.56 dB
    Peak : 0.969177
    CRC32 hash (test run) : 52789E09
    CRC32 hash : 52789E09
    CRC32 hash (skip zero) : 4709661C
    AccurateRip v1 signature : 4F21DD58
    AccurateRip v2 signature : 705FA779
    -Accurately ripped (v2, confidence 6/6)
    Statistics
    Read error : 0
    Jitter error (maybe fixed) : 0
    Retry sector count : 0
    Damaged sector count : 0
    Track 08
    Filename : /Volumes/Hollywood and Vine/Rips/Michael Feinstein - The Sinatra Project, Vol. IIпјљ The Good Life (2011) FLAC/08 The Way You Look Tonight.flac
    Track gain : -5.00 dB
    Peak : 0.973969
    CRC32 hash (test run) : A625C75C
    CRC32 hash : A625C75C
    CRC32 hash (skip zero) : D39B338E
    AccurateRip v1 signature : D5EA0555
    AccurateRip v2 signature : 9EF2C0A4
    -Accurately ripped (v2, confidence 6/6)
    Statistics
    Read error : 0
    Jitter error (maybe fixed) : 0
    Retry sector count : 0
    Damaged sector count : 0
    Track 09
    Filename : /Volumes/Hollywood and Vine/Rips/Michael Feinstein - The Sinatra Project, Vol. IIпјљ The Good Life (2011) FLAC/09 The Lady Is a Tramp.flac
    Track gain : -6.94 dB
    Peak : 0.999969
    CRC32 hash (test run) : DB3E6ED2
    CRC32 hash : DB3E6ED2
    CRC32 hash (skip zero) : 186F5032
    AccurateRip v1 signature : 9C593969
    AccurateRip v2 signature : BE6FAE3B
    -Accurately ripped (v2, confidence 6/6)
    Statistics
    Read error : 0
    Jitter error (maybe fixed) : 0
    Retry sector count : 0
    Damaged sector count : 0
    Track 10
    Filename : /Volumes/Hollywood and Vine/Rips/Michael Feinstein - The Sinatra Project, Vol. IIпјљ The Good Life (2011) FLAC/10 For Once in My Life.flac
    Track gain : -9.84 dB
    Peak : 0.999939
    CRC32 hash (test run) : 5CCFB4F3
    CRC32 hash : 5CCFB4F3
    CRC32 hash (skip zero) : BDDC1A7E
    AccurateRip v1 signature : 259A6011
    AccurateRip v2 signature : 9A7F49C0
    -Accurately ripped (v2, confidence 6/6)
    Statistics
    Read error : 0
    Jitter error (maybe fixed) : 0
    Retry sector count : 0
    Damaged sector count : 0
    Track 11
    Filename : /Volumes/Hollywood and Vine/Rips/Michael Feinstein - The Sinatra Project, Vol. IIпјљ The Good Life (2011) FLAC/11 The Good Life.flac
    Track gain : -1.80 dB
    Peak : 0.974243
    CRC32 hash (test run) : 6EBA495C
    CRC32 hash : 6EBA495C
    CRC32 hash (skip zero) : 0E47F0EE
    AccurateRip v1 signature : E08636A3
    AccurateRip v2 signature : 57EF17CB
    -Accurately ripped (v2, confidence 6/6)
    Statistics
    Read error : 0
    Jitter error (maybe fixed) : 0
    Retry sector count : 0
    Damaged sector count : 0
    Track 12
    Filename : /Volumes/Hollywood and Vine/Rips/Michael Feinstein - The Sinatra Project, Vol. IIпјљ The Good Life (2011) FLAC/12 Once in a Lifetime.flac
    Track gain : -10.21 dB
    Peak : 0.998474
    CRC32 hash (test run) : FC933553
    CRC32 hash : FC933553
    CRC32 hash (skip zero) : 17409901
    AccurateRip v1 signature : 7FC2F9D1
    AccurateRip v2 signature : 34784379
    -Accurately ripped (v2, confidence 6/6)
    Statistics
    Read error : 0
    Jitter error (maybe fixed) : 0
    Retry sector count : 0
    Damaged sector count : 0
    No errors occurred
    End of status report
    -----BEGIN XLD SIGNATURE-----
    7IJl5CzIX78Kzn4YXrVzIErnHkLLb_nZZA9rUr_mXxS6exfJlp9cpl0T1IVk6S_nzUHb_kIPu7d4NPYxDxTkzsCTVaduB8I_7GYDJ4u
    -----END XLD SIGNATURE-----
    Время раздачи: c 15: 00 до 22: 00 (до появления первых 3-5 скачавших)


    Поглощение/вытеснение
    Только с согласия релизера

    Beijing65

    Michael Feinstein - The Sinatra Project, Vol. II: The Good Life (2011) Concord Jazz [FLAC|Lossless|tracks + .cue] <Vocal Jazz>
    Рейтинг →
     (голосов: 1, оценка 5/5, голосовать можно 1 раз )

    Другие торренты по теме:

  • Michael Feinstein - An Intimate Holiday with Michael Feinstein (2001) 2СD, Concord Records [FLAC|Lossless|tracks + .cue] <Vocal Jazz, Christmas>
  • Michael Feinstein & Maynard Ferguson - Big City Rhythms (1999) Concord Records [FLAC|Lossless|tracks + .cue] <Vocal Jazz, Big Band>
  • Barbara Cook & Michael Feinstein - Cheek To Cheek (2011) DuckHole Records [FLAC|Lossless|tracks + .cue] <Vocal Jazz>


    • Комментарии (0):

      Информация

      Информация

        Посетители, находящиеся в группе Гости, не могут оставлять комментарии в данной новости.

        ↓ Меню




        ↓ Опрос

        Вы добавили сайт в закладки?
        Да
        Нет


        Популярное

        ДиДюЛя - 17 альбомов (2000-2017) дискография [MP3|320 кб / с] <Фолк,Фламенко,Фьюжн>

        (скачиваний: 157)
        Чиж & Co - Коллекция легендарных песен (2014) [MP3|320 кб / с]<Rock> скачать через торрент бесплатно

        (скачиваний: 143)
        Стас Намин и Группа ЦВЕТЫ - 40 лет (Полная версия концерта) - Crocus Hall (Live) (2010) HDTVRip [AVC / H.264, 1080p]

        (скачиваний: 103)
        VA - Большая коллекция клипов в авто (2DIN) (2000-2016) SATRip

        (скачиваний: 101)
        The Beatles - Collection of video clips (1964-1983) HDTV [720p] скачать через торрент бесплатно

        (скачиваний: 54)
        Дима Билан - 12 альбомов, 4 сингла (2003 - 2017) [MP3|320 Kbps] <Pop>

        (скачиваний: 49)
        Александр Марцинкевич и группа Кабриолет - Лучших 50 песен (2016) Compilation [FLAC|Lossless|WEB-DL|tracks] <Chanson>

        (скачиваний: 43)
        Голубой огонек - "В первый час..." (1965) SATRip [H.264] [colourization] скачать через торрент бесплатно

        (скачиваний: 41)
        Канцлер Ги - 17 альбомов (2002-2017) [MP3|97-320 kbps]<Нео-Фолк / блюз>

        (скачиваний: 36)
        Демис Руссос - Лучшее (2010) 4CD [MP3|320 кб / с]<Pop>

        (скачиваний: 36)