.
Авторизация | Регистрация
bitok.xyz
» » Слава Бобков - В кабаке (1995) [FLAC|Lossless|tracks + .cue]<Шансон> торрент скачать бесплатно


    Слава Бобков - В кабаке (1995) [FLAC|Lossless|tracks + .cue]<Шансон> торрент скачать бесплатно

    Дата: 30-12-2019, 05:00 | .torrent скачали: 2

    Слава Бобков - В кабаке (1995) [FLAC|Lossless|tracks + .cue]<Шансон>Год: 1995
    Жанр: Шансон
    Издание: CIC Productions CIC-95005-2
    Источник (релизер): eloychik ®
    Продолжительность: 00: 53: 47
    Кодек: FLAC
    Битрейт: Lossless
    Тип рипа: tracks + .cue

    Треклист

    01. Чулочки
    02. Девчонка уезжает заграницу
    03. Беда
    04. Про ваню
    05. В кабаке
    06. Письмо к матери (Конвой)
    07. Такси - зеленый огонек
    08. Покупаю сигареты (Рынок)
    09. Мама
    10. Москва-Калуга
    11. Золотаюшка12. Пан или пропал
    13. Детка
    14. Полюбила Вера милиционера
    15. Плевать! ( Сахар белый, помидор красный )
    16. Ямщик ( Жизнь без праздника в душе )
    17. Русская душа Код: выделить все
    Exact Audio Copy V1.3 from 2. September 2016
    Отчёт EAC об извлечении, выполненном 30. ноября 2019, 22:39
    Various Artists/Популярный шансон
    Дисковод: Optiarc DVD RW AD-7240S Adapter: 1 ID: 1
    Режим чтения : Достоверность
    Использование точного потока : Да
    Отключение кэша аудио : Да
    Использование указателей C2 : Нет
    Коррекция смещения при чтении : 48
    Способность читать области Lead-in и Lead-out : Нет
    Заполнение пропущенных сэмплов тишиной : Да
    Удаление блоков с тишиной в начале и конце : Нет
    При вычислениях CRC использовались нулевые сэмплы : Да
    Интерфейс : Встроенный Win32-интерфейс для Win NT/2000
    Обработка зазоров : Добавлено к предыдущему треку
    Выходной формат : Пользовательский кодировщик
    Выбранный битрейт : 128 kBit/s
    Качество : Высокий
    Добавление ID3-тега : Нет
    Утилита сжатия : C:Program Files (x86)Exact Audio CopyFlacflac.exe
    Дополнительные параметры : -8 -V -T TITLE=%title% -T ARTIST=%artist% -T ALBUMARTIST=%albumartist% -T ALBUM=%albumtitle% -T DATE=%year% -T TRACKNUMBER=%tracknr% -T TRACKTOTAL=%numtracks% -T GENRE=%genre% -T COMMENT=%comment% -T PERFORMER=%albuminterpret% -T COMPOSER=%composer% %source% -o %dest%
    TOC извлечённого CD
    Трек | Старт | Длительность | Начальный сектор | Конечный сектор
    ---------------------------------------------------------------------
    1 | 0:00.00 | 3:43.19 | 0 | 16743
    2 | 3:43.19 | 3:45.07 | 16744 | 33625
    3 | 7:28.26 | 3:24.01 | 33626 | 48926
    4 | 10:52.27 | 3:57.71 | 48927 | 66772
    5 | 14:50.23 | 3:49.72 | 66773 | 84019
    6 | 18:40.20 | 3:09.72 | 84020 | 98266
    7 | 21:50.17 | 4:30.00 | 98267 | 118516
    8 | 26:20.17 | 3:44.67 | 118517 | 135383
    9 | 30:05.09 | 4:19.64 | 135384 | 154872
    10 | 34:24.73 | 3:22.71 | 154873 | 170093
    11 | 37:47.69 | 4:08.57 | 170094 | 188750
    12 | 41:56.51 | 4:13.68 | 188751 | 207793
    13 | 46:10.44 | 4:01.32 | 207794 | 225900
    14 | 50:12.01 | 4:10.62 | 225901 | 244712
    15 | 54:22.63 | 4:53.38 | 244713 | 266725
    16 | 59:16.26 | 4:41.03 | 266726 | 287803
    17 | 63:57.29 | 4:00.13 | 287804 | 305816
    18 | 67:57.42 | 3:42.68 | 305817 | 322534
    19 | 71:40.35 | 3:31.18 | 322535 | 338377
    Трек 1
    Имя файла E:РаздачиNNMClub-eloychik ®Various Artists - Популярный шансон [NNM-Club.to]1.К. Голицына - Апельсинчики.wav
    Длина предзазора 0:00:02.00
    Пиковый уровень 91.3 %
    Скорость извлечения 2.5 X
    Качество трека 100.0 %
    CRC теста 96FDBB4B
    CRC копии 96FDBB4B
    Трек не обнаружен в базе AccurateRip
    Копирование... OK
    Трек 2
    Имя файла E:РаздачиNNMClub-eloychik ®Various Artists - Популярный шансон [NNM-Club.to]2.Мафик - Туся.wav
    Длина предзазора 0:00:02.00
    Пиковый уровень 97.7 %
    Скорость извлечения 2.4 X
    Качество трека 99.9 %
    CRC теста 96A8527E
    CRC копии 96A8527E
    Трек не обнаружен в базе AccurateRip
    Копирование... OK
    Трек 3
    Имя файла E:РаздачиNNMClub-eloychik ®Various Artists - Популярный шансон [NNM-Club.to]3.А. Дюмин - Игра от любви ( Remix ).wav
    Длина предзазора 0:00:02.00
    Пиковый уровень 98.8 %
    Скорость извлечения 2.9 X
    Качество трека 100.0 %
    CRC теста A1655874
    CRC копии A1655874
    Трек не обнаружен в базе AccurateRip
    Копирование... OK
    Трек 4
    Имя файла E:РаздачиNNMClub-eloychik ®Various Artists - Популярный шансон [NNM-Club.to]4.Саша Сирень - Девочка в стиле шансон.wav
    Длина предзазора 0:00:02.00
    Пиковый уровень 88.3 %
    Скорость извлечения 3.1 X
    Качество трека 100.0 %
    CRC теста 365DD473
    CRC копии 365DD473
    Трек не обнаружен в базе AccurateRip
    Копирование... OK
    Трек 5
    Имя файла E:РаздачиNNMClub-eloychik ®Various Artists - Популярный шансон [NNM-Club.to]5.Шансонетки - Разлучница-подруга.wav
    Длина предзазора 0:00:02.00
    Пиковый уровень 98.8 %
    Скорость извлечения 3.3 X
    Качество трека 100.0 %
    CRC теста 57001DA4
    CRC копии 57001DA4
    Трек не обнаружен в базе AccurateRip
    Копирование... OK
    Трек 6
    Имя файла E:РаздачиNNMClub-eloychik ®Various Artists - Популярный шансон [NNM-Club.to]6.Назар - Сон.wav
    Длина предзазора 0:00:02.00
    Пиковый уровень 98.8 %
    Скорость извлечения 3.4 X
    Качество трека 100.0 %
    CRC теста F2664B41
    CRC копии F2664B41
    Трек не обнаружен в базе AccurateRip
    Копирование... OK
    Трек 7
    Имя файла E:РаздачиNNMClub-eloychik ®Various Artists - Популярный шансон [NNM-Club.to]7.Жека и С. Грубов - Канитель.wav
    Длина предзазора 0:00:02.00
    Пиковый уровень 98.8 %
    Скорость извлечения 3.8 X
    Качество трека 100.0 %
    CRC теста 782521D3
    CRC копии 782521D3
    Трек не обнаружен в базе AccurateRip
    Копирование... OK
    Трек 8
    Имя файла E:РаздачиNNMClub-eloychik ®Various Artists - Популярный шансон [NNM-Club.to]8.А. Вестов - Там, где ты.wav
    Длина предзазора 0:00:02.00
    Пиковый уровень 96.5 %
    Скорость извлечения 3.8 X
    Качество трека 100.0 %
    CRC теста 763382D6
    CRC копии 763382D6
    Трек не обнаружен в базе AccurateRip
    Копирование... OK
    Трек 9
    Имя файла E:РаздачиNNMClub-eloychik ®Various Artists - Популярный шансон [NNM-Club.to]9.Бутырка - Последний рассвет.wav
    Длина предзазора 0:00:02.00
    Пиковый уровень 98.8 %
    Скорость извлечения 4.0 X
    Качество трека 100.0 %
    CRC теста A5975832
    CRC копии A5975832
    Трек не обнаружен в базе AccurateRip
    Копирование... OK
    Трек 10
    Имя файла E:РаздачиNNMClub-eloychik ®Various Artists - Популярный шансон [NNM-Club.to]10.Волк - Девушка-красавица.wav
    Длина предзазора 0:00:02.00
    Пиковый уровень 85.4 %
    Скорость извлечения 4.1 X
    Качество трека 100.0 %
    CRC теста BB2DA1A1
    CRC копии BB2DA1A1
    Трек не обнаружен в базе AccurateRip
    Копирование... OK
    Трек 11
    Имя файла E:РаздачиNNMClub-eloychik ®Various Artists - Популярный шансон [NNM-Club.to]11.А. Звинцов - Электричка.wav
    Длина предзазора 0:00:02.00
    Пиковый уровень 98.8 %
    Скорость извлечения 4.4 X
    Качество трека 100.0 %
    CRC теста 9D7F1E0E
    CRC копии 9D7F1E0E
    Трек не обнаружен в базе AccurateRip
    Копирование... OK
    Трек 12
    Имя файла E:РаздачиNNMClub-eloychik ®Various Artists - Популярный шансон [NNM-Club.to]12.М. Шуфутинский - Такси.wav
    Длина предзазора 0:00:02.00
    Пиковый уровень 98.8 %
    Скорость извлечения 4.4 X
    Качество трека 100.0 %
    CRC теста 2C8DEDEB
    CRC копии 2C8DEDEB
    Трек не обнаружен в базе AccurateRip
    Копирование... OK
    Трек 13
    Имя файла E:РаздачиNNMClub-eloychik ®Various Artists - Популярный шансон [NNM-Club.to]13.С. Наговицын - Городские встречи ( Remix ).wav
    Длина предзазора 0:00:02.00
    Пиковый уровень 98.8 %
    Скорость извлечения 4.6 X
    Качество трека 100.0 %
    CRC теста B1BE2524
    CRC копии B1BE2524
    Трек не обнаружен в базе AccurateRip
    Копирование... OK
    Трек 14
    Имя файла E:РаздачиNNMClub-eloychik ®Various Artists - Популярный шансон [NNM-Club.to]14.А. Заря - Ловелас.wav
    Длина предзазора 0:00:02.00
    Пиковый уровень 90.4 %
    Скорость извлечения 4.8 X
    Качество трека 100.0 %
    CRC теста B85C5235
    CRC копии B85C5235
    Трек не обнаружен в базе AccurateRip
    Копирование... OK
    Трек 15
    Имя файла E:РаздачиNNMClub-eloychik ®Various Artists - Популярный шансон [NNM-Club.to]15.М. Шелег - Первая любовь.wav
    Длина предзазора 0:00:02.00
    Пиковый уровень 98.8 %
    Скорость извлечения 5.0 X
    Качество трека 100.0 %
    CRC теста 865A0BD8
    CRC копии 865A0BD8
    Трек не обнаружен в базе AccurateRip
    Копирование... OK
    Трек 16
    Имя файла E:РаздачиNNMClub-eloychik ®Various Artists - Популярный шансон [NNM-Club.to]16.С. Север - Напишите письмо.wav
    Длина предзазора 0:00:02.00
    Пиковый уровень 98.8 %
    Скорость извлечения 5.1 X
    Качество трека 100.0 %
    CRC теста D5BFEB2E
    CRC копии D5BFEB2E
    Трек не обнаружен в базе AccurateRip
    Копирование... OK
    Трек 17
    Имя файла E:РаздачиNNMClub-eloychik ®Various Artists - Популярный шансон [NNM-Club.to]17.С. Трофимов, И. Банников, В. Токарев - Контролёрша.wav
    Длина предзазора 0:00:02.00
    Пиковый уровень 98.8 %
    Скорость извлечения 5.2 X
    Качество трека 100.0 %
    CRC теста 4399A917
    CRC копии 4399A917
    Трек не обнаружен в базе AccurateRip
    Копирование... OK
    Трек 18
    Имя файла E:РаздачиNNMClub-eloychik ®Various Artists - Популярный шансон [NNM-Club.to]18.А. Кальянов - Любка-однолюбка ( Remix ).wav
    Длина предзазора 0:00:02.00
    Пиковый уровень 97.7 %
    Скорость извлечения 5.2 X
    Качество трека 100.0 %
    CRC теста 3182A8B0
    CRC копии 3182A8B0
    Трек не обнаружен в базе AccurateRip
    Копирование... OK
    Трек 19
    Имя файла E:РаздачиNNMClub-eloychik ®Various Artists - Популярный шансон [NNM-Club.to]19.Анонс первого альбома Мафика - Чики-мони.wav
    Длина предзазора 0:00:02.00
    Пиковый уровень 98.4 %
    Скорость извлечения 5.3 X
    Качество трека 100.0 %
    CRC теста B15B08B8
    CRC копии B15B08B8
    Трек не обнаружен в базе AccurateRip
    Копирование... OK
    Ни одного трека нет в базе AccurateRip
    Ошибок не произошло
    Конец отчёта
    ==== Контрольная сумма отчёта FA9A57E66E0F4D537093623DC8B14D90613FA1D37E48D982B6346E343534B436 ====



    Поглощение/вытеснение
    Только с согласия релизера

    Чех
    Время раздачи: Пн-Пт с 17: 00 до 20: 00 и по возможности

    Слава Бобков - В кабаке (1995) [FLAC|Lossless|tracks + .cue]<Шансон>
    Рейтинг →
     (голосов: 1, оценка 4/5, голосовать можно 1 раз )

    Другие торренты по теме:

  • П. Кардаш, С. Кот | Слава украинского казачества / Слава українського козацтва (1999) [PDF] [УКР]
  • Елена Озерецкая | Звенит слава в Киеве (1974) [FB2, EPUB]
  • Слава (2014) WEB-DL [H.264 / 720p-LQ] (серии 1-4 из 4)
  • Слава (Фетисов) (2014) HDTVRip [H.264 / 720p-LQ] (серии 1-4 из 4) скачать через торрент бесплатно
  • Слава (Фетисов) (2014) HDTV [H.264 / 1080i] (серии 1-4 из 4) скачать через торрент бесплатно
  • Слава (Фетисов) (2014) HDTVRip (Серии 1-2 из 4) (обновляемая) скачать через торрент бесплатно
  • Слава (Фетисов) (2014) HDTVRip [H.264] (серии 1-4 из 4) скачать через торрент бесплатно
  • Подшивка журналов | Морская слава России №1-18 [Обновляемая] (2014-2015) [PDF] скачать через торрент бесплатно


    • Комментарии (0):

      Информация

      Информация

        Посетители, находящиеся в группе Гости, не могут оставлять комментарии в данной новости.

        ↓ Меню




        ↓ Опрос

        Вы добавили сайт в закладки?
        Да
        Нет


        Популярное

        ДиДюЛя - 17 альбомов (2000-2017) дискография [MP3|320 кб / с] <Фолк,Фламенко,Фьюжн>

        (скачиваний: 159)
        Чиж & Co - Коллекция легендарных песен (2014) [MP3|320 кб / с]<Rock> скачать через торрент бесплатно

        (скачиваний: 153)
        Стас Намин и Группа ЦВЕТЫ - 40 лет (Полная версия концерта) - Crocus Hall (Live) (2010) HDTVRip [AVC / H.264, 1080p]

        (скачиваний: 103)
        VA - Большая коллекция клипов в авто (2DIN) (2000-2016) SATRip

        (скачиваний: 102)
        The Beatles - Collection of video clips (1964-1983) HDTV [720p] скачать через торрент бесплатно

        (скачиваний: 56)
        Дима Билан - 12 альбомов, 4 сингла (2003 - 2017) [MP3|320 Kbps] <Pop>

        (скачиваний: 51)
        Александр Марцинкевич и группа Кабриолет - Лучших 50 песен (2016) Compilation [FLAC|Lossless|WEB-DL|tracks] <Chanson>

        (скачиваний: 46)
        Голубой огонек - "В первый час..." (1965) SATRip [H.264] [colourization] скачать через торрент бесплатно

        (скачиваний: 41)
        Канцлер Ги - 17 альбомов (2002-2017) [MP3|97-320 kbps]<Нео-Фолк / блюз>

        (скачиваний: 37)
        Демис Руссос - Лучшее (2010) 4CD [MP3|320 кб / с]<Pop>

        (скачиваний: 36)