.
Авторизация | Регистрация
bitok.xyz
» » Николай Расторгуев - Четыре ночи в Москве (1996) [FLAC|Lossless|tracks + .cue]<Rock> торрент скачать бесплатно


    Николай Расторгуев - Четыре ночи в Москве (1996) [FLAC|Lossless|tracks + .cue]<Rock> торрент скачать бесплатно

    Дата: 30-12-2019, 05:00 | .torrent скачали: 5

    Николай Расторгуев - Четыре ночи в Москве (1996) [FLAC|Lossless|tracks + .cue]&ltRock>Год: 1996
    Жанр: Rock
    Издание: RDM CDRDM 603125
    Источник (релизер): eloychik ®
    Продолжительность: 00: 52: 53
    Кодек: FLAC
    Битрейт: Lossless
    Тип рипа: tracks + .cue

    Треклист

    01. It Won\'t Be Long
    02. Help!
    03. Please, Mr. Postman
    04. I\'m Happy Just To Dance With You
    05. If I Feel
    06. Yes It Is
    07. I\'ll Be Back
    08. A Hard Day\'s Night
    09. You\'re Going To Lose That Girl
    10. Anytime At All
    11. Here, There Everywhere12. In My Life
    13. Papperback Writer
    14. Hey, Bulldog
    15. Your Mother Should Know
    16. Because
    17. Revolution
    18. Hello Goodbye
    19. Birthday
    20. For No One
    21. Accross The Univers Код: выделить все
    Exact Audio Copy V1.3 from 2. September 2016
    Отчёт EAC об извлечении, выполненном 12. декабря 2019, 8:20
    Николай Расторгуев /Четыре ночи в Москве
    Дисковод: Optiarc DVD RW AD-7240S Adapter: 1 ID: 1
    Режим чтения : Достоверность
    Использование точного потока : Да
    Отключение кэша аудио : Да
    Использование указателей C2 : Нет
    Коррекция смещения при чтении : 48
    Способность читать области Lead-in и Lead-out : Нет
    Заполнение пропущенных сэмплов тишиной : Да
    Удаление блоков с тишиной в начале и конце : Нет
    При вычислениях CRC использовались нулевые сэмплы : Да
    Интерфейс : Встроенный Win32-интерфейс для Win NT/2000
    Обработка зазоров : Добавлено к следующему треку
    Выходной формат : Пользовательский кодировщик
    Выбранный битрейт : 128 kBit/s
    Качество : Высокий
    Добавление ID3-тега : Нет
    Утилита сжатия : C:Program Files (x86)Exact Audio CopyFlacflac.exe
    Дополнительные параметры : -8 -V -T TITLE=%title% -T ARTIST=%artist% -T ALBUMARTIST=%albumartist% -T ALBUM=%albumtitle% -T DATE=%year% -T TRACKNUMBER=%tracknr% -T TRACKTOTAL=%numtracks% -T GENRE=%genre% -T COMMENT=%comment% -T PERFORMER=%albuminterpret% -T COMPOSER=%composer% %source% -o %dest%
    TOC извлечённого CD
    Трек | Старт | Длительность | Начальный сектор | Конечный сектор
    ---------------------------------------------------------------------
    1 | 0:00.10 | 2:02.10 | 10 | 9169
    2 | 2:02.20 | 2:06.30 | 9170 | 18649
    3 | 4:08.50 | 2:28.29 | 18650 | 29778
    4 | 6:37.04 | 1:51.50 | 29779 | 38153
    5 | 8:28.54 | 2:12.17 | 38154 | 48070
    6 | 10:40.71 | 2:13.73 | 48071 | 58118
    7 | 12:54.69 | 2:19.19 | 58119 | 68562
    8 | 15:14.13 | 2:33.56 | 68563 | 80093
    9 | 17:47.69 | 2:15.58 | 80094 | 90276
    10 | 20:03.52 | 2:15.04 | 90277 | 100405
    11 | 22:18.56 | 2:23.54 | 100406 | 111184
    12 | 24:42.35 | 2:19.49 | 111185 | 121658
    13 | 27:02.09 | 2:29.16 | 121659 | 132849
    14 | 29:31.25 | 2:49.45 | 132850 | 145569
    15 | 32:20.70 | 2:25.74 | 145570 | 156518
    16 | 34:46.69 | 2:56.35 | 156519 | 169753
    17 | 37:43.29 | 3:17.50 | 169754 | 184578
    18 | 41:01.04 | 3:20.48 | 184579 | 199626
    19 | 44:21.52 | 2:37.04 | 199627 | 211405
    20 | 46:58.56 | 1:59.51 | 211406 | 220381
    21 | 48:58.32 | 3:54.64 | 220382 | 237995
    Трек 1
    Имя файла E:РаздачиNNMClub-eloychik ®Николай Расторгуев - Четыре ночи в Москве [NNM-Club.to]1 It Won\'t Be Wrong.wav
    Длина предзазора 0:00:02.10
    Пиковый уровень 98.8 %
    Скорость извлечения 2.0 X
    Качество трека 100.0 %
    CRC теста 3AAB53CE
    CRC копии 3AAB53CE
    Трек не обнаружен в базе AccurateRip
    Копирование... OK
    Трек 2
    Имя файла E:РаздачиNNMClub-eloychik ®Николай Расторгуев - Четыре ночи в Москве [NNM-Club.to]2 Help!.wav
    Пиковый уровень 98.8 %
    Скорость извлечения 2.1 X
    Качество трека 100.0 %
    CRC теста C8C3D255
    CRC копии C8C3D255
    Трек не обнаружен в базе AccurateRip
    Копирование... OK
    Трек 3
    Имя файла E:РаздачиNNMClub-eloychik ®Николай Расторгуев - Четыре ночи в Москве [NNM-Club.to]3 Please Mr. Postman.wav
    Пиковый уровень 98.8 %
    Скорость извлечения 1.9 X
    Качество трека 99.9 %
    CRC теста C6C40CE9
    CRC копии C6C40CE9
    Трек не обнаружен в базе AccurateRip
    Копирование... OK
    Трек 4
    Имя файла E:РаздачиNNMClub-eloychik ®Николай Расторгуев - Четыре ночи в Москве [NNM-Club.to]4 I\'m Happy Just To Dance With You.wav
    Пиковый уровень 98.8 %
    Скорость извлечения 1.8 X
    Качество трека 99.9 %
    CRC теста 98BED060
    CRC копии 98BED060
    Трек не обнаружен в базе AccurateRip
    Копирование... OK
    Трек 5
    Имя файла E:РаздачиNNMClub-eloychik ®Николай Расторгуев - Четыре ночи в Москве [NNM-Club.to]5 If I Fell.wav
    Длина предзазора 0:00:00.34
    Пиковый уровень 98.8 %
    Скорость извлечения 2.5 X
    Качество трека 100.0 %
    CRC теста 330A14EB
    CRC копии 330A14EB
    Трек не обнаружен в базе AccurateRip
    Копирование... OK
    Трек 6
    Имя файла E:РаздачиNNMClub-eloychik ®Николай Расторгуев - Четыре ночи в Москве [NNM-Club.to]6 Yes It Is.wav
    Пиковый уровень 98.8 %
    Скорость извлечения 2.6 X
    Качество трека 100.0 %
    CRC теста 986DFF15
    CRC копии 986DFF15
    Трек не обнаружен в базе AccurateRip
    Копирование... OK
    Трек 7
    Имя файла E:РаздачиNNMClub-eloychik ®Николай Расторгуев - Четыре ночи в Москве [NNM-Club.to]7 I\'ll Be Back.wav
    Длина предзазора 0:00:01.02
    Пиковый уровень 98.8 %
    Скорость извлечения 2.7 X
    Качество трека 100.0 %
    CRC теста 4DFC51FE
    CRC копии 4DFC51FE
    Трек не обнаружен в базе AccurateRip
    Копирование... OK
    Трек 8
    Имя файла E:РаздачиNNMClub-eloychik ®Николай Расторгуев - Четыре ночи в Москве [NNM-Club.to]8 A Hard Day\'s Night.wav
    Пиковый уровень 98.8 %
    Скорость извлечения 2.9 X
    Качество трека 100.0 %
    CRC теста 772E3542
    CRC копии 772E3542
    Трек не обнаружен в базе AccurateRip
    Копирование... OK
    Трек 9
    Имя файла E:РаздачиNNMClub-eloychik ®Николай Расторгуев - Четыре ночи в Москве [NNM-Club.to]9 You\'re Going To Lose That Girl.wav
    Пиковый уровень 98.8 %
    Скорость извлечения 2.9 X
    Качество трека 100.0 %
    CRC теста 54F863B7
    CRC копии 54F863B7
    Трек не обнаружен в базе AccurateRip
    Копирование... OK
    Трек 10
    Имя файла E:РаздачиNNMClub-eloychik ®Николай Расторгуев - Четыре ночи в Москве [NNM-Club.to]10 Any Time At All.wav
    Длина предзазора 0:00:01.10
    Пиковый уровень 98.8 %
    Скорость извлечения 3.1 X
    Качество трека 100.0 %
    CRC теста 9C647CB0
    CRC копии 9C647CB0
    Трек не обнаружен в базе AccurateRip
    Копирование... OK
    Трек 11
    Имя файла E:РаздачиNNMClub-eloychik ®Николай Расторгуев - Четыре ночи в Москве [NNM-Club.to]11 Here, There And Everywhere.wav
    Пиковый уровень 98.8 %
    Скорость извлечения 3.2 X
    Качество трека 100.0 %
    CRC теста 92C7BE9E
    CRC копии 92C7BE9E
    Трек не обнаружен в базе AccurateRip
    Копирование... OK
    Трек 12
    Имя файла E:РаздачиNNMClub-eloychik ®Николай Расторгуев - Четыре ночи в Москве [NNM-Club.to]12 In My Life.wav
    Длина предзазора 0:00:00.60
    Пиковый уровень 98.8 %
    Скорость извлечения 3.2 X
    Качество трека 100.0 %
    CRC теста 57780BA7
    CRC копии 57780BA7
    Трек не обнаружен в базе AccurateRip
    Копирование... OK
    Трек 13
    Имя файла E:РаздачиNNMClub-eloychik ®Николай Расторгуев - Четыре ночи в Москве [NNM-Club.to]13 Paperback Writer.wav
    Пиковый уровень 98.8 %
    Скорость извлечения 3.4 X
    Качество трека 100.0 %
    CRC теста EABA4AEC
    CRC копии EABA4AEC
    Трек не обнаружен в базе AccurateRip
    Копирование... OK
    Трек 14
    Имя файла E:РаздачиNNMClub-eloychik ®Николай Расторгуев - Четыре ночи в Москве [NNM-Club.to]14 Hey, Bulldog.wav
    Пиковый уровень 98.8 %
    Скорость извлечения 3.5 X
    Качество трека 100.0 %
    CRC теста 8640B95C
    CRC копии 8640B95C
    Трек не обнаружен в базе AccurateRip
    Копирование... OK
    Трек 15
    Имя файла E:РаздачиNNMClub-eloychik ®Николай Расторгуев - Четыре ночи в Москве [NNM-Club.to]15 Your Mother Should Know.wav
    Пиковый уровень 98.8 %
    Скорость извлечения 3.6 X
    Качество трека 100.0 %
    CRC теста 6167BB60
    CRC копии 6167BB60
    Трек не обнаружен в базе AccurateRip
    Копирование... OK
    Трек 16
    Имя файла E:РаздачиNNMClub-eloychik ®Николай Расторгуев - Четыре ночи в Москве [NNM-Club.to]16 Because.wav
    Пиковый уровень 98.8 %
    Скорость извлечения 3.8 X
    Качество трека 100.0 %
    CRC теста 777363A0
    CRC копии 777363A0
    Трек не обнаружен в базе AccurateRip
    Копирование... OK
    Трек 17
    Имя файла E:РаздачиNNMClub-eloychik ®Николай Расторгуев - Четыре ночи в Москве [NNM-Club.to]17 Revolution.wav
    Пиковый уровень 98.8 %
    Скорость извлечения 4.0 X
    Качество трека 100.0 %
    CRC теста D8013E91
    CRC копии D8013E91
    Трек не обнаружен в базе AccurateRip
    Копирование... OK
    Трек 18
    Имя файла E:РаздачиNNMClub-eloychik ®Николай Расторгуев - Четыре ночи в Москве [NNM-Club.to]18 Hello Goodbye.wav
    Длина предзазора 0:00:00.45
    Пиковый уровень 98.8 %
    Скорость извлечения 4.2 X
    Качество трека 100.0 %
    CRC теста 69273050
    CRC копии 69273050
    Трек не обнаружен в базе AccurateRip
    Копирование... OK
    Трек 19
    Имя файла E:РаздачиNNMClub-eloychik ®Николай Расторгуев - Четыре ночи в Москве [NNM-Club.to]19 Birthday.wav
    Пиковый уровень 98.8 %
    Скорость извлечения 4.0 X
    Качество трека 100.0 %
    CRC теста 3AC06297
    CRC копии 3AC06297
    Трек не обнаружен в базе AccurateRip
    Копирование... OK
    Трек 20
    Имя файла E:РаздачиNNMClub-eloychik ®Николай Расторгуев - Четыре ночи в Москве [NNM-Club.to]20 For No One.wav
    Длина предзазора 0:00:01.58
    Пиковый уровень 98.8 %
    Скорость извлечения 3.9 X
    Качество трека 100.0 %
    CRC теста 7D597260
    CRC копии 7D597260
    Трек не обнаружен в базе AccurateRip
    Копирование... OK
    Трек 21
    Имя файла E:РаздачиNNMClub-eloychik ®Николай Расторгуев - Четыре ночи в Москве [NNM-Club.to]21 Aross The Universe.wav
    Длина предзазора 0:00:00.60
    Пиковый уровень 98.8 %
    Скорость извлечения 4.5 X
    Качество трека 100.0 %
    CRC теста C6CA8ACB
    CRC копии C6CA8ACB
    Трек не обнаружен в базе AccurateRip
    Копирование... OK
    Ни одного трека нет в базе AccurateRip
    Ошибок не произошло
    Конец отчёта
    ==== Контрольная сумма отчёта 4DC9EFDA65A0C82DBE2E6B2B6BC3120A9FBA7C2D11C140171168DD4C5F68438F ====
    Время раздачи: Пн-Пт с 17: 00 до 20: 00 и по возможности


    Поглощение/вытеснение
    Только с согласия релизера

    Beijing65

    Николай Расторгуев - Четыре ночи в Москве (1996) [FLAC|Lossless|tracks + .cue]<Rock>
    Рейтинг →
     (голосов: 1, оценка 4/5, голосовать можно 1 раз )

    Другие торренты по теме:

  • Александр Маршал, Николай Расторгуев и Александр Иванов - Хорошо (2019) Single [MP3|320 Kbps] <Pop>


    • Комментарии (0):

      Информация

      Информация

        Посетители, находящиеся в группе Гости, не могут оставлять комментарии в данной новости.

        ↓ Меню




        ↓ Опрос

        Вы добавили сайт в закладки?
        Да
        Нет


        Популярное

        ДиДюЛя - 17 альбомов (2000-2017) дискография [MP3|320 кб / с] <Фолк,Фламенко,Фьюжн>

        (скачиваний: 159)
        Чиж & Co - Коллекция легендарных песен (2014) [MP3|320 кб / с]<Rock> скачать через торрент бесплатно

        (скачиваний: 143)
        Стас Намин и Группа ЦВЕТЫ - 40 лет (Полная версия концерта) - Crocus Hall (Live) (2010) HDTVRip [AVC / H.264, 1080p]

        (скачиваний: 103)
        VA - Большая коллекция клипов в авто (2DIN) (2000-2016) SATRip

        (скачиваний: 101)
        The Beatles - Collection of video clips (1964-1983) HDTV [720p] скачать через торрент бесплатно

        (скачиваний: 54)
        Дима Билан - 12 альбомов, 4 сингла (2003 - 2017) [MP3|320 Kbps] <Pop>

        (скачиваний: 50)
        Александр Марцинкевич и группа Кабриолет - Лучших 50 песен (2016) Compilation [FLAC|Lossless|WEB-DL|tracks] <Chanson>

        (скачиваний: 46)
        Голубой огонек - "В первый час..." (1965) SATRip [H.264] [colourization] скачать через торрент бесплатно

        (скачиваний: 41)
        Канцлер Ги - 17 альбомов (2002-2017) [MP3|97-320 kbps]<Нео-Фолк / блюз>

        (скачиваний: 36)
        Демис Руссос - Лучшее (2010) 4CD [MP3|320 кб / с]<Pop>

        (скачиваний: 36)