.
Авторизация | Регистрация
bitok.xyz
» » Barbara Cook & Michael Feinstein - Cheek To Cheek (2011) DuckHole Records [FLAC|Lossless|tracks + .cue] <Vocal Jazz> торрент скачать бесплатно


    Barbara Cook & Michael Feinstein - Cheek To Cheek (2011) DuckHole Records [FLAC|Lossless|tracks + .cue] <Vocal Jazz> торрент скачать бесплатно

    Дата: 31-12-2019, 05:00 | .torrent скачали: 0

    Barbara Cook & Michael Feinstein - Cheek To Cheek (2011) DuckHole Records [FLAC|Lossless|tracks + .cue] &ltVocal Jazz>Жанр: Vocal Jazz
    Издание: DuckHole Records - DR-3192-1
    Продолжительность: 00: 57: 12
    Кодек: FLAC (tracks+.cue)
    Битрейт: Lossless
    Источник (релизер): Napaskiak
    Страна-производитель диска: USA
    Наличие сканов в содержимом раздачи: да

    Треклист

    01. I\'ve Got the World on a String 3: 05
    02. Cheek to Cheek 3: 24
    03. I\'ve Got You Under My Skin 3: 44
    04. The World Keeps Changing/There\'ll Be Some Changes Made 3: 21
    05. The Very Thought of You/Tea for Two 6: 05
    06. Ac-Cent-Tchu-Ate the Positive 3: 36
    07. Ever After 3: 34
    08. Where Do You Start 3: 26
    09. You Could Drive a Person Crazy 3: 25
    10. Without a Song 4: 49
    11. Here\'s to Life 4: 59
    12. You\'re Gonna Hear from Me 5: 03
    13. Give Me the Simple Life 3: 15
    14. Shine on Harvest Moon 5: 27
    Exact Audio Copy V1.3 from 2. September 2016
    EAC extraction logfile from 31. October 2019, 11: 37
    Barbara Cook Michael Feinstein/Cheek To Cheek: Live From Feinstein\'s At Loews Regency
    Used drive : ASUS DRW-2014L1T Adapter: 1 ID: 0
    Read mode : Secure
    Utilize accurate stream : Yes
    Defeat audio cache : Yes
    Make use of C2 pointers : No
    Read offset correction : 6
    Overread into Lead-In and Lead-Out : No
    Fill up missing offset samples with silence : Yes
    Delete leading and trailing silent blocks : No
    Null samples used in CRC calculations : Yes
    Used interface : Native Win32 interface for Win NT 2000
    Gap handling : Appended to previous track
    Used output format : User Defined Encoder
    Selected bitrate : 768 kBit/s
    Quality : High
    Add ID3 tag : No
    Command line compressor : C: Program Files (x86)Exact Audio CopyFlacflac.exe
    Additional command line options : -6 -V -T ARTIST=%artist% -T TITLE=%title% -T ALBUM=%albumtitle% -T DATE=%year% -T TRACKNUMBER=%tracknr% -T GENRE=%genre% -T COMMENT=%comment% -T BAND=%albuminterpret% -T ALBUMARTIST=%albuminterpret% -T COMPOSER=%composer% %haslyrics%--tag-from-file=LYRICS=%lyricsfile%%haslyrics% -T DISCNUMBER=%cdnumber% -T TOTALDISCS=%totalcds% -T TOTALTRACKS=%numtracks% %hascover%--picture=%coverfile%%hascover% %source% -o %dest%
    TOC of the extracted CD
    Track | Start | Length | Start sector | End sector
    ---------------------------------------------------------
    1 | 0: 00.00 | 3: 04.62 | 0 | 13861
    2 | 3: 04.62 | 3: 23.41 | 13862 | 29127
    3 | 6: 28.28 | 3: 43.58 | 29128 | 45910
    4 | 10: 12.11 | 3: 20.65 | 45911 | 60975
    5 | 13: 33.01 | 6: 05.23 | 60976 | 88373
    6 | 19: 38.24 | 3: 36.25 | 88374 | 104598
    7 | 23: 14.49 | 3: 34.33 | 104599 | 120681
    8 | 26: 49.07 | 3: 25.44 | 120682 | 136100
    9 | 30: 14.51 | 3: 24.72 | 136101 | 151472
    10 | 33: 39.48 | 4: 49.13 | 151473 | 173160
    11 | 38: 28.61 | 4: 58.57 | 173161 | 195567
    12 | 43: 27.43 | 5: 03.13 | 195568 | 218305
    13 | 48: 30.56 | 3: 14.47 | 218306 | 232902
    14 | 51: 45.28 | 5: 26.43 | 232903 | 257395
    Track 1
    Filename D: Barbara Cook Michael FeinsteinCheek To Cheek- Live From Feinstein\'s At Loews Regency1 - I\'ve Got The World On A String.wav
    Pre-gap length 0: 00: 02.00
    Peak level 97.7 %
    Extraction speed 5.0 X
    Track quality 100.0 %
    Test CRC 66D743A2
    Copy CRC 66D743A2
    Accurately ripped (confidence 2) 34A10B21 (AR v2)
    Copy OK
    Track 2
    Filename D: Barbara Cook Michael FeinsteinCheek To Cheek- Live From Feinstein\'s At Loews Regency2 - Cheek To Cheek.wav
    Peak level 97.7 %
    Extraction speed 5.5 X
    Track quality 100.0 %
    Test CRC ABB135FD
    Copy CRC ABB135FD
    Accurately ripped (confidence 2) ABED9749 (AR v2)
    Copy OK
    Track 3
    Filename D: Barbara Cook Michael FeinsteinCheek To Cheek- Live From Feinstein\'s At Loews Regency3 - I\'ve Got You Under My Skin.wav
    Peak level 97.7 %
    Extraction speed 4.5 X
    Track quality 99.9 %
    Test CRC 113C72CA
    Copy CRC 113C72CA
    Accurately ripped (confidence 2) F7CC3699 (AR v2)
    Copy OK
    Track 4
    Filename D: Barbara Cook Michael FeinsteinCheek To Cheek- Live From Feinstein\'s At Loews Regency4 - The World Keeps Changing, There\'ll Be Some Changes Made.wav
    Peak level 97.7 %
    Extraction speed 4.6 X
    Track quality 99.9 %
    Test CRC 638C921B
    Copy CRC 638C921B
    Accurately ripped (confidence 2) 4F686DE2 (AR v2)
    Copy OK
    Track 5
    Filename D: Barbara Cook Michael FeinsteinCheek To Cheek- Live From Feinstein\'s At Loews Regency5 - The Very Thought Of You, Tea For Two.wav
    Peak level 97.7 %
    Extraction speed 6.2 X
    Track quality 100.0 %
    Test CRC 473CED0B
    Copy CRC 473CED0B
    Accurately ripped (confidence 2) DC20E53F (AR v2)
    Copy OK
    Track 6
    Filename D: Barbara Cook Michael FeinsteinCheek To Cheek- Live From Feinstein\'s At Loews Regency6 - Ac-Cent-Tchu-Ate The Positive.wav
    Peak level 97.7 %
    Extraction speed 6.2 X
    Track quality 100.0 %
    Test CRC 3A571A5A
    Copy CRC 3A571A5A
    Accurately ripped (confidence 2) F616856E (AR v2)
    Copy OK
    Track 7
    Filename D: Barbara Cook Michael FeinsteinCheek To Cheek- Live From Feinstein\'s At Loews Regency7 - Ever After.wav
    Peak level 97.7 %
    Extraction speed 5.6 X
    Track quality 99.9 %
    Test CRC 7FFE71B7
    Copy CRC 7FFE71B7
    Accurately ripped (confidence 2) 816BF77F (AR v2)
    Copy OK
    Track 8
    Filename D: Barbara Cook Michael FeinsteinCheek To Cheek- Live From Feinstein\'s At Loews Regency8 - Where Do You Start.wav
    Peak level 97.7 %
    Extraction speed 6.7 X
    Track quality 100.0 %
    Test CRC BA532809
    Copy CRC BA532809
    Accurately ripped (confidence 2) 816D985C (AR v2)
    Copy OK
    Track 9
    Filename D: Barbara Cook Michael FeinsteinCheek To Cheek- Live From Feinstein\'s At Loews Regency9 - You Could Drive A Person Crazy.wav
    Peak level 97.7 %
    Extraction speed 6.9 X
    Track quality 100.0 %
    Test CRC 4FEC66E3
    Copy CRC 4FEC66E3
    Accurately ripped (confidence 2) 3433DFB9 (AR v2)
    Copy OK
    Track 10
    Filename D: Barbara Cook Michael FeinsteinCheek To Cheek- Live From Feinstein\'s At Loews Regency10 - Without A Song.wav
    Peak level 97.7 %
    Extraction speed 6.7 X
    Track quality 99.9 %
    Test CRC 1A7C2ADE
    Copy CRC 1A7C2ADE
    Accurately ripped (confidence 2) 69B626F2 (AR v2)
    Copy OK
    Track 11
    Filename D: Barbara Cook Michael FeinsteinCheek To Cheek- Live From Feinstein\'s At Loews Regency11 - Here\'s To Life.wav
    Peak level 97.7 %
    Extraction speed 7.8 X
    Track quality 100.0 %
    Test CRC 424BBC32
    Copy CRC 424BBC32
    Accurately ripped (confidence 2) 01742CBF (AR v2)
    Copy OK
    Track 12
    Filename D: Barbara Cook Michael FeinsteinCheek To Cheek- Live From Feinstein\'s At Loews Regency12 - You\'re Gonna Hear From Me.wav
    Peak level 97.7 %
    Extraction speed 8.1 X
    Track quality 100.0 %
    Test CRC 11D2F1DD
    Copy CRC 11D2F1DD
    Accurately ripped (confidence 2) DE73E3AB (AR v2)
    Copy OK
    Track 13
    Filename D: Barbara Cook Michael FeinsteinCheek To Cheek- Live From Feinstein\'s At Loews Regency13 - Give Me The Simple Life.wav
    Peak level 97.7 %
    Extraction speed 7.8 X
    Track quality 100.0 %
    Test CRC ECF0B352
    Copy CRC ECF0B352
    Accurately ripped (confidence 2) 7B0FB264 (AR v2)
    Copy OK
    Track 14
    Filename D: Barbara Cook Michael FeinsteinCheek To Cheek- Live From Feinstein\'s At Loews Regency14 - Shine On Harvest Moon.wav
    Peak level 97.7 %
    Extraction speed 8.6 X
    Track quality 100.0 %
    Test CRC E0992586
    Copy CRC E0992586
    Accurately ripped (confidence 2) 07499EA3 (AR v2)
    Copy OK
    All tracks accurately ripped
    No errors occurred
    End of status report
    ---- CUETools DB Plugin V2.1.6
    CTDB TOCID: bzytsV4j8q_OatctN2M0z2W5kzU- found
    Submit result: bzytsV4j8q_OatctN2M0z2W5kzU- has been confirmed
    Track | CTDB Status
    1 | (4/4) Accurately ripped
    2 | (4/4) Accurately ripped
    3 | (4/4) Accurately ripped
    4 | (4/4) Accurately ripped
    5 | (4/4) Accurately ripped
    6 | (4/4) Accurately ripped
    7 | (4/4) Accurately ripped
    8 | (4/4) Accurately ripped
    9 | (4/4) Accurately ripped
    10 | (4/4) Accurately ripped
    11 | (4/4) Accurately ripped
    12 | (4/4) Accurately ripped
    13 | (4/4) Accurately ripped
    14 | (4/4) Accurately ripped
    ==== Log checksum 6E58278AED54C329B1FFF8320B74C3158C3BD81CECEBA3E6EB86E701FDE09D83 ====
    Время раздачи: c 15: 00 до 22: 00 (до появления первых 3-5 скачавших)


    Поглощение/вытеснение
    Только с согласия релизера

    Beijing65

    Barbara Cook & Michael Feinstein - Cheek To Cheek (2011) DuckHole Records [FLAC|Lossless|tracks + .cue] <Vocal Jazz>
    Рейтинг →
     (голосов: 1, оценка 4/5, голосовать можно 1 раз )

    Другие торренты по теме:

  • Underworld - Barbara Barbara, We Face A Shining Future (2016) [MP3|320 кб / с] <House, Techno, Electronica>
  • Underworld - Barbara Barbara, We Face A Shining Future (2016) [FLAC|Lossless|tracks + .cue] <Progressive House, Techno>
  • Underworld - Barbara Barbara, We Face A Shining Future (2016) Japan [FLAC|Lossless|WEB-24-96|tracks] <Techno, House>
  • Санта Барбара / Santa Barbara (1988) VHSRip (Cерии 860-986 из 2137) скачать через торрент бесплатно
  • Barbara Straathof - Nothing But Love (2014) [MP3|320 кб / с]<Pop> скачать через торрент бесплатно
  • Barbara Blue - Memphis Blue: Sweet, Strong, & Tight (2015) [MP3|320 кб / с]<Modern Electric Blues> скачать через торрент бесплатно
  • Святая Варвара / Santa Barbara (2012) DVDRip [VO] скачать через торрент бесплатно
  • Barbara Fasano - Busy Being Free (2015) [FLAC|tracks|WEB-DL]<Vocal Jazz> скачать через торрент бесплатно


    • Комментарии (0):

      Информация

      Информация

        Посетители, находящиеся в группе Гости, не могут оставлять комментарии в данной новости.

        ↓ Меню




        ↓ Опрос

        Вы добавили сайт в закладки?
        Да
        Нет


        Популярное

        ДиДюЛя - 17 альбомов (2000-2017) дискография [MP3|320 кб / с] <Фолк,Фламенко,Фьюжн>

        (скачиваний: 157)
        Чиж & Co - Коллекция легендарных песен (2014) [MP3|320 кб / с]<Rock> скачать через торрент бесплатно

        (скачиваний: 140)
        Стас Намин и Группа ЦВЕТЫ - 40 лет (Полная версия концерта) - Crocus Hall (Live) (2010) HDTVRip [AVC / H.264, 1080p]

        (скачиваний: 102)
        VA - Большая коллекция клипов в авто (2DIN) (2000-2016) SATRip

        (скачиваний: 100)
        The Beatles - Collection of video clips (1964-1983) HDTV [720p] скачать через торрент бесплатно

        (скачиваний: 54)
        Дима Билан - 12 альбомов, 4 сингла (2003 - 2017) [MP3|320 Kbps] <Pop>

        (скачиваний: 49)
        Александр Марцинкевич и группа Кабриолет - Лучших 50 песен (2016) Compilation [FLAC|Lossless|WEB-DL|tracks] <Chanson>

        (скачиваний: 43)
        Голубой огонек - "В первый час..." (1965) SATRip [H.264] [colourization] скачать через торрент бесплатно

        (скачиваний: 41)
        Демис Руссос - Лучшее (2010) 4CD [MP3|320 кб / с]<Pop>

        (скачиваний: 36)
        Канцлер Ги - 17 альбомов (2002-2017) [MP3|97-320 kbps]<Нео-Фолк / блюз>

        (скачиваний: 36)