.
Авторизация | Регистрация
bitok.xyz
» » Kiyoko (Synkro & Bering Strait) - Discography 6 Releases (2012-2017) Auxiliary, Samurai Horo [FLAC|Lossless|tracks] <Ambient, Downtempo, Glitch, IDM, Drum & Bass, Experimental> торрент скачать бесплатно


    Kiyoko (Synkro & Bering Strait) - Discography 6 Releases (2012-2017) Auxiliary, Samurai Horo [FLAC|Lossless|tracks] <Ambient, Downtempo, Glitch, IDM, Drum & Bass, Experimental> торрент скачать бесплатно

    Дата: 31-12-2019, 05:00 | .torrent скачали: 0

    Kiyoko (Synkro & Bering Strait) - Discography 6 Releases (2012-2017) Auxiliary, Samurai Horo [FLAC|Lossless|tracks] &ltAmbient, Downtempo, Glitch, IDM, Drum & Bass, Experimental>Год выпуска : 2012
    Жанр : Ambient/Downtempo/Glitch
    Продолжительноcть : 00: 29: 42
    Треклист :
    01. First Light (02: 08)
    02. Open (03: 52)
    03. Shinagawa (03: 16)
    04. Rainfall (03: 58)
    05. Dulcimer (04: 26)
    06. Valley (05: 38)
    07. Sea Of Trees (06: 24)
    Exact Audio Copy V1.0 beta 3 from 29. August 2011
    EAC extraction logfile from 16. June 2012, 12: 01
    Kiyoko/Sea Of Trees
    Used drive : TSSTcorpCDDVDW SH-222AB Adapter: 0 ID: 3
    Read mode : Secure
    Utilize accurate stream : Yes
    Defeat audio cache : Yes
    Make use of C2 pointers : No
    Read offset correction : 6
    Overread into Lead-In and Lead-Out : No
    Fill up missing offset samples with silence : Yes
    Delete leading and trailing silent blocks : No
    Null samples used in CRC calculations : Yes
    Used interface : Native Win32 interface for Win NT 2000
    Gap handling : Appended to previous track
    Used output format : User Defined Encoder
    Selected bitrate : 1024 kBit/s
    Quality : High
    Add ID3 tag : No
    Command line compressor : C: Program Files (x86)FLACflac.exe
    Additional command line options : -8 -V -T ARTIST=%artist% -T TITLE=%title% -T ALBUM=%albumtitle% -T DATE=%year% -T TRACKNUMBER=%tracknr% -T GENRE=%genre% -T PERFORMER=%albuminterpret% -T COMPOSER=%composer% %haslyrics%--tag-from-file=LYRICS=%lyricsfile%%haslyrics% -T ALBUMARTIST=%albumartist% -T DISCNUMBER=%cdnumber% -T TOTALDISCS=%totalcds% -T TOTALTRACKS=%numtracks% -T COMMENT=%comment% %source% -o %dest%
    TOC of the extracted CD
    Track | Start | Length | Start sector | End sector
    ---------------------------------------------------------
    1 | 0: 00.00 | 2: 08.06 | 0 | 9605
    2 | 2: 08.06 | 3: 51.46 | 9606 | 26976
    3 | 5: 59.52 | 3: 16.00 | 26977 | 41676
    4 | 9: 15.52 | 3: 58.36 | 41677 | 59562
    5 | 13: 14.13 | 4: 26.00 | 59563 | 79512
    6 | 17: 40.13 | 5: 38.14 | 79513 | 104876
    7 | 23: 18.27 | 6: 24.00 | 104877 | 133676
    Track 1
    Filename G: RipsKiyoko - 2012 - Sea Of Trees1 - First Light.wav
    Pre-gap length 0: 00: 02.00
    Peak level 96.7 %
    Extraction speed 4.2 X
    Track quality 100.0 %
    Test CRC 76091E6A
    Copy CRC 76091E6A
    Track not present in AccurateRip database
    Copy OK
    Track 2
    Filename G: RipsKiyoko - 2012 - Sea Of Trees2 - Open.wav
    Peak level 100.0 %
    Extraction speed 5.1 X
    Track quality 100.0 %
    Test CRC B15D041C
    Copy CRC B15D041C
    Track not present in AccurateRip database
    Copy OK
    Track 3
    Filename G: RipsKiyoko - 2012 - Sea Of Trees3 - Shinagawa.wav
    Peak level 99.9 %
    Extraction speed 5.3 X
    Track quality 100.0 %
    Test CRC F673A9B2
    Copy CRC F673A9B2
    Track not present in AccurateRip database
    Copy OK
    Track 4
    Filename G: RipsKiyoko - 2012 - Sea Of Trees4 - Rainfall.wav
    Peak level 100.0 %
    Extraction speed 5.9 X
    Track quality 100.0 %
    Test CRC 7AFB4CD8
    Copy CRC 7AFB4CD8
    Track not present in AccurateRip database
    Copy OK
    Track 5
    Filename G: RipsKiyoko - 2012 - Sea Of Trees5 - Dulcimer.wav
    Peak level 88.8 %
    Extraction speed 6.3 X
    Track quality 100.0 %
    Test CRC 61F75E53
    Copy CRC 61F75E53
    Track not present in AccurateRip database
    Copy OK
    Track 6
    Filename G: RipsKiyoko - 2012 - Sea Of Trees6 - Valley.wav
    Peak level 100.0 %
    Extraction speed 6.9 X
    Track quality 100.0 %
    Test CRC 072F42D4
    Copy CRC 072F42D4
    Track not present in AccurateRip database
    Copy OK
    Track 7
    Filename G: RipsKiyoko - 2012 - Sea Of Trees7 - Sea Of Trees.wav
    Peak level 100.0 %
    Extraction speed 7.4 X
    Track quality 100.0 %
    Test CRC E5E4A2A0
    Copy CRC E5E4A2A0
    Track not present in AccurateRip database
    Copy OK
    None of the tracks are present in the AccurateRip database
    No errors occurred
    End of status report
    ---- CUETools DB Plugin V2.1.3
    CTDB TOCID: VHMLNzRM8_XhT3aeGIFwbMciqHI- disk not present in database, Submit result: VHMLNzRM8_XhT3aeGIFwbMciqHI- has been uploaded
    ==== Log checksum AB7D690F6ADA1DCF630496F9DCD1A1E50752A6C5373AC372C36F9728846DFF3C ====
    Год выпуска : 2013
    Жанр : Experimental/IDM/Drum n Bass/Ambient
    Продолжительноcть : 00: 15: 28
    Треклист :
    01. Track 1 (03: 37)
    02. Track 2 (04: 49)
    03. Track 3 (03: 30)
    04. Track 4 (03: 32)
    -----------------------
    DON\'T MODIFY THIS FILE
    -----------------------
    PERFORMER: auCDtect Task Manager, ver. 1.6.0 RC1 build 1.6.0.1
    Copyright (c) 2008-2010 y-soft. All rights reserved
    http://y-soft.org
    ANALYZER: auCDtect: CD records authenticity detector, version 0.8.2
    Copyright (c) 2004 Oleg Berngardt. All rights reserved.
    Copyright (c) 2004 Alexander Djourik. All rights reserved.
    FILE: 04. Track 4.flac
    Size: 20568523 Hash: ADC58D7716F50E32E4BE26473E102182 Accuracy: -m0
    Conclusion: CDDA 76%
    Signature: C8E905D0217CC458CBD9548A24332D240E5ED1A0
    FILE: 03. Track 3.flac
    Size: 19976407 Hash: E84E7D6CA756F37464ACAECBD0ABAF01 Accuracy: -m0
    Conclusion: CDDA 100%
    Signature: A57A60B8F8EC05ECC1825FDAF79EEB05D6AB6C94
    FILE: 02. Track 2.flac
    Size: 34800949 Hash: 3CB421F12060ED746BF78CD13F4D319B Accuracy: -m0
    Conclusion: CDDA 99%
    Signature: 7FE9553407F54003466202F64EE7B60E24F18EBF
    FILE: 01. Track 1.flac
    Size: 21063955 Hash: B2CAC5FBC229A40C2833F08A2BF32E95 Accuracy: -m0
    Conclusion: CDDA 100%
    Signature: 46D6A82B5A7D306DDB77A3B86E0B37B5431283B6
    Год выпуска : 2014
    Жанр : Ambient/Experimental/Downtempo
    Продолжительноcть : 00: 19: 00
    Треклист :
    01. Archway (04: 35)
    02. Fragments (05: 05)
    03. Lost Object (04: 44)
    04. Headlights (04: 36)
    foobar2000 1.4/Dynamic Range Meter 1.1.1
    log date: 2019-12-30 05: 12: 49
    --------------------------------------------------------------------------------
    Analyzed: Kiyoko/Fragments EP
    --------------------------------------------------------------------------------
    DR Peak RMS Duration Track
    --------------------------------------------------------------------------------
    DR12 -3.00 dB -16.88 dB 4: 35 ?-Archway
    DR12 -3.00 dB -17.78 dB 5: 05 ?-Fragments
    DR12 -3.00 dB -18.84 dB 4: 44 ?-Lost Object
    DR15 0.00 dB -16.69 dB 4: 36 ?-Headlights
    --------------------------------------------------------------------------------
    Number of tracks: 4
    Official DR value: DR13
    Samplerate: 48000 Hz
    Channels: 2
    Bits per sample: 24
    Bitrate: 1585 kbps
    Codec: FLAC
    ================================================================================
    Год выпуска : 2016
    Жанр : Ambient/Experimental/IDM/Drum n Bass/Glitch
    Продолжительноcть : 00: 45: 58
    Треклист :
    01. Track 1 (03: 37)
    02. Track 2 (04: 49)
    03. Track 3 (03: 30)
    04. Track 4 (03: 32)
    05. Archway (04: 43)
    06. Fragments (05: 05)
    07. Lost Object (04: 46)
    08. Headlights (04: 38)
    09. Dear Friends (06: 49)
    10. Causeway (04: 29)
    -----------------------
    DON\'T MODIFY THIS FILE
    -----------------------
    PERFORMER: auCDtect Task Manager, ver. 1.6.0 RC1 build 1.6.0.1
    Copyright (c) 2008-2010 y-soft. All rights reserved
    http://y-soft.org
    ANALYZER: auCDtect: CD records authenticity detector, version 0.8.2
    Copyright (c) 2004 Oleg Berngardt. All rights reserved.
    Copyright (c) 2004 Alexander Djourik. All rights reserved.
    FILE: 10. Causeway.flac
    Size: 26436629 Hash: 152138307330D085790D8ACF7CBA4A3B Accuracy: -m0
    Conclusion: CDDA 100%
    Signature: B6A4826F9014729F078FFA694EFA78972250B6BF
    FILE: 09. Dear Friends.flac
    Size: 34862830 Hash: 8D8B6242079416E9CFBE166DED5FB378 Accuracy: -m0
    Conclusion: CDDA 86%
    Signature: E02F93DA2D4ABAA1EECB203DC8B45063E41BFB56
    FILE: 08. Headlights.flac
    Size: 32213600 Hash: 2076F607ACCBC0BF66D047E2DEBC0EC8 Accuracy: -m0
    Conclusion: CDDA 100%
    Signature: 1362E972D1DB3DB5ED410BCD3FB1977EA0516DAA
    FILE: 07. Lost Object.flac
    Size: 26450014 Hash: 27E8407013664C41EBD8F61DD5F75B04 Accuracy: -m0
    Conclusion: CDDA 100%
    Signature: A8423299E0A9DE59C1E2EC0EF77300F36E0F735F
    FILE: 06. Fragments.flac
    Size: 36629095 Hash: 2DF55E60E8BCEAA55EBA64972F72D58A Accuracy: -m0
    Conclusion: CDDA 100%
    Signature: 04A070DD2260FDFB7115186412435C342EAC71D6
    FILE: 05. Archway.flac
    Size: 21713432 Hash: 13A10BBFD014E30619210852410998DE Accuracy: -m0
    Conclusion: CDDA 100%
    Signature: 01C91DCC99157D414372D470B122D37FE09A0C68
    FILE: 04. Track 4.flac
    Size: 20924361 Hash: ADC58D7716F50E32E4BE26473E102182 Accuracy: -m0
    Conclusion: CDDA 76%
    Signature: 7928EBFD717DB208262B6B3E991BB7D6D3ACBF58
    FILE: 03. Track 3.flac
    Size: 20655639 Hash: 8BEC203022EC06E5A2CC6B3C8C98DACF Accuracy: -m0
    Conclusion: CDDA 99%
    Signature: 89ADC992FAA76593BAAA5C853830CCE8D50F299E
    FILE: 02. Track 2.flac
    Size: 35156787 Hash: 3CB421F12060ED746BF78CD13F4D319B Accuracy: -m0
    Conclusion: CDDA 99%
    Signature: D58BFFABF3F277E1F25A4ACC4A284FFD84C42D69
    FILE: 01. Track 1.flac
    Size: 21419793 Hash: B2CAC5FBC229A40C2833F08A2BF32E95 Accuracy: -m0
    Conclusion: CDDA 100%
    Signature: F58891F87E371518E408374C3BA437EDED31748B
    Год выпуска : 2016
    Жанр : Ambient/Downtempo/Drum Bass/Experimental
    Продолжительноcть : 00: 54: 25
    Треклист :
    01. Side A (27: 00)
    02. Side B (27: 25)
    -----------------------
    DON\'T MODIFY THIS FILE
    -----------------------
    PERFORMER: auCDtect Task Manager, ver. 1.6.0 RC1 build 1.6.0.1
    Copyright (c) 2008-2010 y-soft. All rights reserved
    http://y-soft.org
    ANALYZER: auCDtect: CD records authenticity detector, version 0.8.2
    Copyright (c) 2004 Oleg Berngardt. All rights reserved.
    Copyright (c) 2004 Alexander Djourik. All rights reserved.
    FILE: 02. Side B.flac
    Size: 124630382 Hash: 92138320675763C364AF89C280A8CC49 Accuracy: -m0
    Conclusion: CDDA 100%
    Signature: 5C1D6FF92BAB7CD75CD70E0C5D2D673D146B6F44
    FILE: 01. Side A.flac
    Size: 108743992 Hash: 1DDDEDB92E91DDCD9DE946A993EB6E0F Accuracy: -m0
    Conclusion: CDDA 100%
    Signature: C8A006B630064608EFCF0F41C39F28692CFC593A
    Год выпуска : 2017
    Жанр : Ambient/IDM/Glitch
    Продолжительноcть : 00: 14: 39
    Треклист :
    01. Emeralds (02: 19)
    02. Nancy Grows Up (05: 43)
    03. The Heights (06: 37)
    -----------------------
    DON\'T MODIFY THIS FILE
    -----------------------
    PERFORMER: auCDtect Task Manager, ver. 1.6.0 RC1 build 1.6.0.1
    Copyright (c) 2008-2010 y-soft. All rights reserved
    http://y-soft.org
    ANALYZER: auCDtect: CD records authenticity detector, version 0.8.2
    Copyright (c) 2004 Oleg Berngardt. All rights reserved.
    Copyright (c) 2004 Alexander Djourik. All rights reserved.
    FILE: 03. The Heights.flac
    Size: 41234490 Hash: B6FA9B8E41D81ECAD3411EBAB44136BF Accuracy: -m0
    Conclusion: CDDA 100%
    Signature: 74F7E6ED90B98416F8EEBA6F39357E69E2E14776
    FILE: 02. Nancy Grows Up.flac
    Size: 31627708 Hash: 3E52B27465FC25BF0846BA56CBE9C334 Accuracy: -m0
    Conclusion: CDDA 100%
    Signature: A334F1F18BF21C0D7DDCA3767748FF7B669AA03B
    FILE: 01. Emeralds.flac
    Size: 12453385 Hash: 6169399301BCE351E0837E92094E3C33 Accuracy: -m0
    Conclusion: CDDA 100%
    Signature: 8EBD27122F16FA29E32CE7E1587F3CE46AF45C6C


    Kiyoko (Synkro & Bering Strait) - Discography 6 Releases (2012-2017) Auxiliary, Samurai Horo [FLAC|Lossless|tracks] <Ambient, Downtempo, Glitch, IDM, Drum & Bass, Experimental>
    Рейтинг →
     (голосов: 1, оценка 5/5, голосовать можно 1 раз )

    Другие торренты по теме:

  • Kiyoko - Fragments EP (2014) [MP3|320 кб / с]<Ambient, Experimental, Downtempo> скачать через торрент бесплатно
  • Kiyoko - Sea Of Trees (2012) [FLAC|Lossless|tracks + .cue] <Ambient, Downtempo, Glitch> скачать через торрент бесплатно


    • Комментарии (0):

      Информация

      Информация

        Посетители, находящиеся в группе Гости, не могут оставлять комментарии в данной новости.

        ↓ Меню




        ↓ Опрос

        Вы добавили сайт в закладки?
        Да
        Нет


        Популярное

        ДиДюЛя - 17 альбомов (2000-2017) дискография [MP3|320 кб / с] <Фолк,Фламенко,Фьюжн>

        (скачиваний: 155)
        Чиж & Co - Коллекция легендарных песен (2014) [MP3|320 кб / с]<Rock> скачать через торрент бесплатно

        (скачиваний: 140)
        Стас Намин и Группа ЦВЕТЫ - 40 лет (Полная версия концерта) - Crocus Hall (Live) (2010) HDTVRip [AVC / H.264, 1080p]

        (скачиваний: 102)
        VA - Большая коллекция клипов в авто (2DIN) (2000-2016) SATRip

        (скачиваний: 100)
        The Beatles - Collection of video clips (1964-1983) HDTV [720p] скачать через торрент бесплатно

        (скачиваний: 53)
        Дима Билан - 12 альбомов, 4 сингла (2003 - 2017) [MP3|320 Kbps] <Pop>

        (скачиваний: 47)
        Александр Марцинкевич и группа Кабриолет - Лучших 50 песен (2016) Compilation [FLAC|Lossless|WEB-DL|tracks] <Chanson>

        (скачиваний: 43)
        Голубой огонек - "В первый час..." (1965) SATRip [H.264] [colourization] скачать через торрент бесплатно

        (скачиваний: 41)
        Демис Руссос - Лучшее (2010) 4CD [MP3|320 кб / с]<Pop>

        (скачиваний: 36)
        Канцлер Ги - 17 альбомов (2002-2017) [MP3|97-320 kbps]<Нео-Фолк / блюз>

        (скачиваний: 36)