.
Авторизация | Регистрация
bitok.xyz
» » Stangala - Boued Tousek Hag Traou Mat All (2011) [FLAC|Lossless|image + .cue] <Doom Metal, Celtic, Psychedelic Rock, Folk> торрент скачать бесплатно


    Stangala - Boued Tousek Hag Traou Mat All (2011) [FLAC|Lossless|image + .cue] <Doom Metal, Celtic, Psychedelic Rock, Folk> торрент скачать бесплатно

    Дата: 1-01-2020, 05:00 | .torrent скачали: 0

    Stangala - Boued Tousek Hag Traou Mat All (2011) [FLAC|Lossless|image + .cue] &ltDoom Metal, Celtic, Psychedelic Rock, Folk>Жанр: Doom Metal, Celtic, Psychedelic Rock, Folk
    Издание: Solitude Productions - SP. 052-11
    Источник (релизер): darkbrides
    Продолжительность: 01: 07: 14
    Кодек: FLAC
    Битрейт: Lossless
    Тип рипа: image + .cue
    Наличие сканов: Да, полные


    Треклист

    01. Doom Rock Glazik (3: 10)
    02. Al Lidou Esoterik An Dolmen Hud (7: 36)
    03. Kalon An Noz (3: 52)
    04. Sorcerezed (5: 44)
    05. Deus Bars An Tan (6: 53)
    06. Langoliers (2: 51)
    07. Bigoudened An Diaoul (4: 29)
    08. Boued Tousek Hag Traou Mat All (7: 11)
    09. Izel Eo An Dour (7: 38)
    10. Mij Du (17: 50) Код: выделить все
    Exact Audio Copy V1.3 from 2. September 2016
    EAC extraction logfile from 12. December 2019, 15:31
    Stangala/Boued Tousek Hag Traou Mat All
    Used drive : ASUS DRW-1612BL Adapter: 2 ID: 0
    Read mode : Secure
    Utilize accurate stream : Yes
    Defeat audio cache : Yes
    Make use of C2 pointers : No
    Read offset correction : 6
    Overread into Lead-In and Lead-Out : No
    Fill up missing offset samples with silence : Yes
    Delete leading and trailing silent blocks : No
    Null samples used in CRC calculations : Yes
    Used interface : Installed external ASPI interface
    Used output format : User Defined Encoder
    Selected bitrate : 128 kBit/s
    Quality : High
    Add ID3 tag : No
    Command line compressor : C:Program FilesEACExact Audio CopyFlacflac.exe
    Additional command line options : -V -8 -T Date=%year% -T Genre=%genre% %source%
    TOC of the extracted CD
    Track | Start | Length | Start sector | End sector
    ---------------------------------------------------------
    1 | 0:00.00 | 3:10.00 | 0 | 14249
    2 | 3:10.00 | 7:36.00 | 14250 | 48449
    3 | 10:46.00 | 3:52.00 | 48450 | 65849
    4 | 14:38.00 | 5:44.00 | 65850 | 91649
    5 | 20:22.00 | 6:53.19 | 91650 | 122643
    6 | 27:15.19 | 2:51.10 | 122644 | 135478
    7 | 30:06.29 | 4:29.00 | 135479 | 155653
    8 | 34:35.29 | 7:10.57 | 155654 | 187960
    9 | 41:46.11 | 7:37.69 | 187961 | 222304
    10 | 49:24.05 | 17:50.16 | 222305 | 302570
    Range status and errors
    Selected range
    Filename C:darkbridesStangala - Boued Tousek Hag Traou Mat All.wav
    Peak level 98.8 %
    Extraction speed 4.4 X
    Range quality 100.0 %
    Test CRC 56A7EAC5
    Copy CRC 56A7EAC5
    Copy OK
    No errors occurred
    AccurateRip summary
    Track 1 accurately ripped (confidence 4) [8F99BC93] (AR v2)
    Track 2 accurately ripped (confidence 4) [9EA2C539] (AR v2)
    Track 3 accurately ripped (confidence 4) [5AF11449] (AR v2)
    Track 4 accurately ripped (confidence 4) [16024324] (AR v2)
    Track 5 accurately ripped (confidence 4) [47C8C6C9] (AR v2)
    Track 6 accurately ripped (confidence 4) [F38CD869] (AR v2)
    Track 7 accurately ripped (confidence 4) [0C7642EA] (AR v2)
    Track 8 accurately ripped (confidence 4) [F5E23379] (AR v2)
    Track 9 accurately ripped (confidence 4) [B4730F82] (AR v2)
    Track 10 accurately ripped (confidence 4) [349332D1] (AR v2)
    All tracks accurately ripped
    End of status report
    ---- CUETools DB Plugin V2.1.6
    [CTDB TOCID: mBLJrE_IXbibpg8ei.DfJ7hxLAs-] found
    Submit result: mBLJrE_IXbibpg8ei.DfJ7hxLAs- has been confirmed
    Track | CTDB Status
    1 | (3/3) Accurately ripped
    2 | (3/3) Accurately ripped
    3 | (3/3) Accurately ripped
    4 | (3/3) Accurately ripped
    5 | (3/3) Accurately ripped
    6 | (3/3) Accurately ripped
    7 | (3/3) Accurately ripped
    8 | (3/3) Accurately ripped
    9 | (3/3) Accurately ripped
    10 | (3/3) Accurately ripped
    ==== Log checksum FDC3F1CF54A67B3177B167ACE40FBE8F270E216AE429670957793FC9C222BB90 ====


    Stangala - Boued Tousek Hag Traou Mat All (2011) [FLAC|Lossless|image + .cue] <Doom Metal, Celtic, Psychedelic Rock, Folk>
    Рейтинг →
     (голосов: 1, оценка 5/5, голосовать можно 1 раз )

    Другие торренты по теме:

  • Stangala - Klañv (Klanv) (2016) [FLAC|Lossless|Web-DL|tracks] <Doom Metal, Stoner Metal, Celtic Rock>


    • Комментарии (0):

      Информация

      Информация

        Посетители, находящиеся в группе Гости, не могут оставлять комментарии в данной новости.

        ↓ Меню




        ↓ Опрос

        Вы добавили сайт в закладки?
        Да
        Нет


        Популярное

        Чиж & Co - Коллекция легендарных песен (2014) [MP3|320 кб / с]<Rock> скачать через торрент бесплатно

        (скачиваний: 188)
        ДиДюЛя - 17 альбомов (2000-2017) дискография [MP3|320 кб / с] <Фолк,Фламенко,Фьюжн>

        (скачиваний: 177)
        VA - Большая коллекция клипов в авто (2DIN) (2000-2016) SATRip

        (скачиваний: 109)
        Стас Намин и Группа ЦВЕТЫ - 40 лет (Полная версия концерта) - Crocus Hall (Live) (2010) HDTVRip [AVC / H.264, 1080p]

        (скачиваний: 108)
        Дима Билан - 12 альбомов, 4 сингла (2003 - 2017) [MP3|320 Kbps] <Pop>

        (скачиваний: 62)
        The Beatles - Collection of video clips (1964-1983) HDTV [720p] скачать через торрент бесплатно

        (скачиваний: 59)
        Квартирник у Маргулиса. 10 выпуск. Варвара Визбор (2016) WEBRip

        (скачиваний: 55)
        Александр Марцинкевич и группа Кабриолет - Лучших 50 песен (2016) Compilation [FLAC|Lossless|WEB-DL|tracks] <Chanson>

        (скачиваний: 55)
        Канцлер Ги - 17 альбомов (2002-2017) [MP3|97-320 kbps]<Нео-Фолк / блюз>

        (скачиваний: 48)
        Голубой огонек - "В первый час..." (1965) SATRip [H.264] [colourization] скачать через торрент бесплатно

        (скачиваний: 41)