.
Авторизация | Регистрация

bitok.xyz

» » Фрэнк Синатра. Концерт легендарного певца / Frank Sinatra "SINATRA" (1969) DVB скачать через торрент бесплатно


    Фрэнк Синатра. Концерт легендарного певца / Frank Sinatra "SINATRA" (1969) DVB скачать через торрент бесплатно

    Дата: 17-12-2015, 04:01 | .torrent скачали: 103

    Фрэнк Синатра. Концерт легендарного певца / Frank Sinatra SINATRA (1969) DVB скачать через торрент бесплатноТелекомпания: США, Bristol Productions. Inc.
    Жанр: Концерт
    Участники: Frank Sinatra, Ray Brown

    Описание

    Встреча в концертной студии. Запись 1969 года.
    Фрэнк Синатра рассказывает о своих киноролях, воспоминаниях детства, новых песнях, созданных специально для него.
    В программе принимает участие Дон Коста и его оркестр, звучат популярные песни из репертуара Синатры – My Way, Fly me to the moon, Chicago и многие другие.

    Треклист

    01. For Once in My Life (Ron Miller, Orlando Murden)
    02. Please Be Kind (Saul Chaplin, Sammy Cahn)
    03. My Way (Paul Anka, Claude François, Jacques Revaux, Gilles Thibault)
    04. Film clip medley with song highlights of: I Couldn\'t Sleep a Wink Last Night/You\'re Sensational/All the Way/(Love Is) The Tender Trap (Harold Adamson, Jimmy McHugh)/(Cole Porter)/(Cahn, Jimmy Van Heusen)/(Cahn, Van Heusen)
    05. Little Green Apples (Bobby Russell)
    06. Out Beyond the Window (Rod McKuen)
    07. A Man Alone (McKuen)
    08. Didn\'t We? (Jimmy Webb)
    09. Forget to Remember (Victoria Pike, Teddy Randazzo)
    10. Fly Me to the Moon (Bart Howard)
    11. Street of Dreams (Sam M. Lewis, Victor Young)
    12. Love\'s Been Good to Me (McKuen)
    13. Goin\' Out of My Head (Randazzo, Bobby Weinstein)
    14. My Kind of Town (Cahn, Van Heusen)

    Продолжительность: 00: 51: 41
    Качество видео: DVB
    Перевод: Одноголосый закадровый, профессиональный
    Язык субтитров: Русские
    Вид субтитров: Вшитые
    Видео: AVC/H.264, 720х576@768x576, ~2644 kb/s
    Аудио: MP2, 2 ch, 192 kb/s, CBR
    Семпл: Скачать Код:
    Общее
    Идентификатор : 16 (0x10)
    Полное имя : With Guest Star Frank Sinatra and Don Costa and His Orchestra_1969.ts
    Формат : MPEG-TS
    Размер файла : 1, 08 Гбайт
    Продолжительность : 51 м.
    Режим общего битрейта : Переменный
    Общий поток : 2985 Кбит/сек
    Видео
    Идентификатор : 1061 (0x425)
    Идентификатор меню : 1060 (0x424)
    Формат : AVC
    Формат/Информация : Advanced Video Codec
    Профиль формата :Main@L3.0
    Параметр CABAC формата : Да
    Параметр ReFrames формата : 4 кадра
    Идентификатор кодека : 27
    Продолжительность : 51 м.
    Битрейт : 2644 Кбит/сек
    Ширина : 720 пикселей
    Высота : 576 пикселей
    Соотношение сторон : 4:3
    Частота кадров : 25, 000 кадров/сек
    Стандарт вещания : PAL
    Цветовое пространство : YUV
    Субдискретизация насыщенности : 4:2:0
    Битовая глубина : 8 бит
    Тип развёртки : Чересстрочная
    Порядок развёртки : Верхнее поле первое
    Бит/(Пиксели*Кадры) : 0.255
    Размер потока : 978 Мбайт (89%)
    Основные цвета : BT.601 PAL
    Характеристики трансфера : BT.470 System B, BT.470 System G
    Коэффициенты матрицы : BT.601
    Аудио
    Идентификатор : 1062 (0x426)
    Идентификатор меню : 1060 (0x424)
    Формат : MPEG Audio
    Версия формата : Version 1
    Профиль формата : Layer 2
    Идентификатор кодека : 4
    Продолжительность : 51 м.
    Вид битрейта : Постоянный
    Битрейт : 192 Кбит/сек
    Каналы : 2 канала
    Частота : 48, 0 КГц
    Метод сжатия : С потерями
    Задержка видео : 143 мс.
    Размер потока : 71, 0 Мбайт (6%)
    Язык : std
    Язык, дополнительно : Clean effects
    Текст
    Идентификатор : 1064 (0x428)-100
    Идентификатор меню : 1060 (0x424)
    Формат : Teletext
    Меню
    Идентификатор : 1060 (0x424)
    Идентификатор меню : 1060 (0x424)
    Продолжительность : 51 м.
    Список : 1061 (0x425) (AVC)/1062 (0x426) (MPEG Audio, std)/1064 (0x428) ()
    Язык : /std


    Скриншоты для ознакомления




    Фрэнк Синатра. Концерт легендарного певца/Frank Sinatra "SINATRA" (1969) DVB
    Рейтинг →
     (голосов: 1, оценка 4/5, голосовать можно 1 раз )

    Другие торренты по теме:

  • Дж.Рэнди Тараборелли | Фрэнк Синатра. Я делал все по-своему (2018) [MP3]


    • Комментарии (0):

      Информация

      Информация

        Посетители, находящиеся в группе Гости, не могут оставлять комментарии в данной новости.

        ↓ Меню




        ↓ Опрос

        Вы добавили сайт в закладки?
        Да
        Нет


        Популярное