.
Авторизация | Регистрация
bitok.xyz
Торрент скачать бесплатно Музыка торрент скачать Config.Sys & Ahnst Anders - ...Boiling The Ocean (2008) [FLAC|Lossless|tracks + .cue] <IDM, Abstract, Industrial, Ambient> торрент скачать бесплатно


    Config.Sys & Ahnst Anders - ...Boiling The Ocean (2008) [FLAC|Lossless|tracks + .cue] <IDM, Abstract, Industrial, Ambient> торрент скачать бесплатно

    Дата: 2-04-2016, 04:00 | .torrent скачали: 14

    Config.Sys & Ahnst Anders - ...Boiling The Ocean (2008) [FLAC|Lossless|tracks + .cue] &ltIDM, Abstract, Industrial, Ambient>Год: 2008
    Жанр: IDM, Abstract, Industrial, Ambient
    Издание: Pflichtkauf - pflicht 38
    Продолжительность: 01: 05: 41
    Кодек: FLAC
    Битрейт: Lossless
    Тип рипа: tracks + .cue

    Треклист

    01. Anadromous (03: 00)
    02. Deep Down (06: 16)
    03. Disco Fisch (06: 27)
    04. Liquid Death (04: 58)
    05. Seascrap (04: 24)
    06. Land Ahead (10: 13)
    07. H2O (05: 23)
    08. Descent (06: 32)
    09. Get Wet (05: 27)
    10. Waterflow (05: 55)
    11. Catadromous (07: 06)
    Код:
    Exact Audio Copy V1.1 from 23. June 2015
    EAC extraction logfile from 7. March 2016, 17:04
    Config.sys Ahnst Anders/...Boiling The Ocean
    Used drive : SlimtypeDVD A DS8A8SH Adapter: 1 ID: 0
    Read mode : Secure
    Utilize accurate stream : Yes
    Defeat audio cache : Yes
    Make use of C2 pointers : No
    Read offset correction : 6
    Overread into Lead-In and Lead-Out : No
    Fill up missing offset samples with silence : Yes
    Delete leading and trailing silent blocks : No
    Null samples used in CRC calculations : Yes
    Used interface : Native Win32 interface for Win NT 2000
    Gap handling : Appended to previous track
    Used output format : User Defined Encoder
    Selected bitrate : 1024 kBit/s
    Quality : High
    Add ID3 tag : No
    Command line compressor : C:Program Files (x86)Exact Audio CopyFlacflac.exe
    Additional command line options : -8 -V -T ARTIST=%artist% -T TITLE=%title% -T ALBUM=%albumtitle% -T DATE=%year% -T TRACKNUMBER=%tracknr% -T GENRE=%genre% -T PERFORMER=%albuminterpret% -T COMPOSER=%composer% %haslyrics%--tag-from-file=LYRICS=%lyricsfile%%haslyrics% -T ALBUMARTIST=%albumartist% -T DISCNUMBER=%cdnumber% -T TOTALDISCS=%totalcds% -T TOTALTRACKS=%numtracks% -T COMMENT=%comment% %source% -o %dest%
    TOC of the extracted CD
    Track | Start | Length | Start sector | End sector
    ---------------------------------------------------------
    1 | 0:00.00 | 3:00.37 | 0 | 13536
    2 | 3:00.37 | 6:16.05 | 13537 | 41741
    3 | 9:16.42 | 6:27.28 | 41742 | 70794
    4 | 15:43.70 | 4:58.33 | 70795 | 93177
    5 | 20:42.28 | 4:24.15 | 93178 | 112992
    6 | 25:06.43 | 10:12.54 | 112993 | 158946
    7 | 35:19.22 | 5:22.60 | 158947 | 183156
    8 | 40:42.07 | 6:32.37 | 183157 | 212593
    9 | 47:14.44 | 5:27.03 | 212594 | 237121
    10 | 52:41.47 | 5:54.68 | 237122 | 263739
    11 | 58:36.40 | 7:06.29 | 263740 | 295718
    Track 1
    Filename C:ripsConfig.sys Ahnst Anders - ...Boiling The Ocean (2008) [FLAC]1 - Anadromous.wav
    Pre-gap length 0:00:02.00
    Peak level 97.7 %
    Extraction speed 1.1 X
    Track quality 100.0 %
    Test CRC B97750AC
    Copy CRC B97750AC
    Track not present in AccurateRip database
    Copy OK
    Track 2
    Filename C:ripsConfig.sys Ahnst Anders - ...Boiling The Ocean (2008) [FLAC]2 - Deep Down.wav
    Pre-gap length 0:00:01.00
    Peak level 97.7 %
    Extraction speed 1.3 X
    Track quality 100.0 %
    Test CRC B741F521
    Copy CRC B741F521
    Track not present in AccurateRip database
    Copy OK
    Track 3
    Filename C:ripsConfig.sys Ahnst Anders - ...Boiling The Ocean (2008) [FLAC]3 - Disco Fisch.wav
    Pre-gap length 0:00:01.00
    Peak level 75.8 %
    Extraction speed 1.5 X
    Track quality 100.0 %
    Test CRC 449E763F
    Copy CRC 449E763F
    Track not present in AccurateRip database
    Copy OK
    Track 4
    Filename C:ripsConfig.sys Ahnst Anders - ...Boiling The Ocean (2008) [FLAC]4 - Liquid Death.wav
    Pre-gap length 0:00:01.00
    Peak level 97.7 %
    Extraction speed 1.5 X
    Track quality 99.9 %
    Test CRC 996AEEC8
    Copy CRC 996AEEC8
    Track not present in AccurateRip database
    Copy OK
    Track 5
    Filename C:ripsConfig.sys Ahnst Anders - ...Boiling The Ocean (2008) [FLAC]5 - Seascrap.wav
    Pre-gap length 0:00:01.00
    Peak level 69.3 %
    Extraction speed 1.8 X
    Track quality 100.0 %
    Test CRC 66120D1C
    Copy CRC 66120D1C
    Track not present in AccurateRip database
    Copy OK
    Track 6
    Filename C:ripsConfig.sys Ahnst Anders - ...Boiling The Ocean (2008) [FLAC]6 - Land Ahead.wav
    Pre-gap length 0:00:01.00
    Peak level 97.7 %
    Extraction speed 2.0 X
    Track quality 100.0 %
    Test CRC 21D29292
    Copy CRC 21D29292
    Track not present in AccurateRip database
    Copy OK
    Track 7
    Filename C:ripsConfig.sys Ahnst Anders - ...Boiling The Ocean (2008) [FLAC]7 - H2O.wav
    Pre-gap length 0:00:01.00
    Peak level 97.7 %
    Extraction speed 2.1 X
    Track quality 100.0 %
    Test CRC AC9AB860
    Copy CRC AC9AB860
    Track not present in AccurateRip database
    Copy OK
    Track 8
    Filename C:ripsConfig.sys Ahnst Anders - ...Boiling The Ocean (2008) [FLAC]8 - Descent.wav
    Peak level 97.7 %
    Extraction speed 2.3 X
    Track quality 100.0 %
    Test CRC 08EDF1CE
    Copy CRC 08EDF1CE
    Track not present in AccurateRip database
    Copy OK
    Track 9
    Filename C:ripsConfig.sys Ahnst Anders - ...Boiling The Ocean (2008) [FLAC]9 - Get Wet.wav
    Pre-gap length 0:00:01.00
    Peak level 97.7 %
    Extraction speed 2.3 X
    Track quality 100.0 %
    Test CRC 28065B16
    Copy CRC 28065B16
    Track not present in AccurateRip database
    Copy OK
    Track 10
    Filename C:ripsConfig.sys Ahnst Anders - ...Boiling The Ocean (2008) [FLAC]10 - Waterflow.wav
    Pre-gap length 0:00:01.00
    Peak level 97.7 %
    Extraction speed 2.2 X
    Track quality 99.9 %
    Test CRC BC3126B1
    Copy CRC BC3126B1
    Track not present in AccurateRip database
    Copy OK
    Track 11
    Filename C:ripsConfig.sys Ahnst Anders - ...Boiling The Ocean (2008) [FLAC]11 - Catadromous.wav
    Pre-gap length 0:00:01.00
    Peak level 97.7 %
    Extraction speed 2.6 X
    Track quality 100.0 %
    Test CRC A14A485D
    Copy CRC A14A485D
    Track not present in AccurateRip database
    Copy OK
    None of the tracks are present in the AccurateRip database
    No errors occurred
    End of status report
    ==== Log checksum D4B928DCF14261492F4D0AFAB67D66FDAB63EBD46134CDAD991A007C6CA7E3D4 ====
    Код:
    REM GENRE Industrial
    REM DATE 2008
    REM DISCID 8F0F660B
    REM COMMENT ExactAudioCopy v1.1
    PERFORMER Config.sys Ahnst Anders
    TITLE ...Boiling The Ocean
    FILE 01 - Anadromous.wav WAVE
    TRACK 01 AUDIO
    TITLE Anadromous
    PERFORMER Config.sys Ahnst Anders
    INDEX 01 00:00:00
    TRACK 02 AUDIO
    TITLE Deep Down
    PERFORMER Config.sys Ahnst Anders
    INDEX 00 02:59:37
    FILE 02 - Deep Down.wav WAVE
    INDEX 01 00:00:00
    TRACK 03 AUDIO
    TITLE Disco Fisch
    PERFORMER Config.sys Ahnst Anders
    INDEX 00 06:15:05
    FILE 03 - Disco Fisch.wav WAVE
    INDEX 01 00:00:00
    TRACK 04 AUDIO
    TITLE Liquid Death
    PERFORMER Config.sys Ahnst Anders
    INDEX 00 06:26:28
    FILE 04 - Liquid Death.wav WAVE
    INDEX 01 00:00:00
    TRACK 05 AUDIO
    TITLE Seascrap
    PERFORMER Config.sys Ahnst Anders
    INDEX 00 04:57:33
    FILE 05 - Seascrap.wav WAVE
    INDEX 01 00:00:00
    TRACK 06 AUDIO
    TITLE Land Ahead
    PERFORMER Config.sys Ahnst Anders
    INDEX 00 04:23:15
    FILE 06 - Land Ahead.wav WAVE
    INDEX 01 00:00:00
    TRACK 07 AUDIO
    TITLE H2O
    PERFORMER Config.sys Ahnst Anders
    INDEX 00 10:11:54
    FILE 07 - H2O.wav WAVE
    INDEX 01 00:00:00
    FILE 08 - Descent.wav WAVE
    TRACK 08 AUDIO
    TITLE Descent
    PERFORMER Config.sys Ahnst Anders
    INDEX 01 00:00:00
    TRACK 09 AUDIO
    TITLE Get Wet
    PERFORMER Config.sys Ahnst Anders
    INDEX 00 06:31:37
    FILE 09 - Get Wet.wav WAVE
    INDEX 01 00:00:00
    TRACK 10 AUDIO
    TITLE Waterflow
    PERFORMER Config.sys Ahnst Anders
    INDEX 00 05:26:03
    FILE 10 - Waterflow.wav WAVE
    INDEX 01 00:00:00
    TRACK 11 AUDIO
    TITLE Catadromous
    PERFORMER Config.sys Ahnst Anders
    INDEX 00 05:53:68
    FILE 11 - Catadromous.wav WAVE
    INDEX 01 00:00:00
    Код:
    -----------------------
    DON\'T MODIFY THIS FILE
    -----------------------
    PERFORMER: auCDtect Task Manager, ver. 1.5.1RC6 build 1.5.1.7
    Copyright (c) 2008-2010 y-soft. All rights reserved
    http://y-soft.org
    ANALYZER: auCDtect: CD records authenticity detector, version 0.8.2
    Copyright (c) 2004 Oleg Berngardt. All rights reserved.
    Copyright (c) 2004 Alexander Djourik. All rights reserved.
    FILE: 01 - Anadromous.flac
    Size: 15650803 Hash: 2941FAEDB25EC9AF1FF1A555FE43F5D9 Accuracy: -m0
    Conclusion: CDDA 100%
    Signature: 7D97E641FC84E649130BBE7F08231E51A4D1B0F7
    FILE: 11 - Catadromous.flac
    Size: 35052162 Hash: 6C4D52413D04F28584A2BD6193270FD5 Accuracy: -m0
    Conclusion: CDDA 100%
    Signature: 67B6B59AE08B7B0D13B8FD296AA6BA31B752AC66
    FILE: 10 - Waterflow.flac
    Size: 30459134 Hash: 5F79312BF9B7480DE12C0DB8EBCDFE2D Accuracy: -m0
    Conclusion: CDDA 100%
    Signature: 2076FD498A9A5EBF247BDC7444587EC91FA479FE
    FILE: 09 - Get Wet.flac
    Size: 41814306 Hash: 3648DE6E9B2B786DDE2D889D298811D4 Accuracy: -m0
    Conclusion: CDDA 100%
    Signature: 79632AB0452CAF59FAE771B18E5E79A258C2EDE5
    FILE: 07 - H2O.flac
    Size: 39976670 Hash: 2328BAED7EA5425504FA7384E1B7F979 Accuracy: -m0
    Conclusion: CDDA 100%
    Signature: 7FB7592DA899E69257BCDCAB9434AE0A6902F76A
    FILE: 06 - Land Ahead.flac
    Size: 80085852 Hash: 330079ECBB6AD583024BA94ECBA44E49 Accuracy: -m0
    Conclusion: CDDA 100%
    Signature: 155F8E384DE36AEF3BE950B462CF1AD1A4BF84CB
    FILE: 05 - Seascrap.flac
    Size: 32294724 Hash: E9E883962CDB04CAD709D35FED54B5A8 Accuracy: -m0
    Conclusion: CDDA 100%
    Signature: 3F5133EFEF78CCF9F2AFB0625E1ADC003CE40CAE
    FILE: 04 - Liquid Death.flac
    Size: 31454069 Hash: B78AE475236799FAECE302283CC98613 Accuracy: -m0
    Conclusion: CDDA 100%
    Signature: AF9E49EE27355BBA2F80C2915C0FB0D83CA1D8FD
    FILE: 03 - Disco Fisch.flac
    Size: 32428976 Hash: B03E7C0DF55F77FF8469533A1703B6DF Accuracy: -m0
    Conclusion: CDDA 100%
    Signature: 6F3365CFE07128A6CD09CC7661ED90651DF45BFF
    FILE: 02 - Deep Down.flac
    Size: 34111916 Hash: 7DCDE60FBD8E285579D38E6C00043AED Accuracy: -m0
    Conclusion: CDDA 100%
    Signature: 2C9B4D189F9BA13D583D6DF8AFCAC3B3606F122F

    Config.Sys & Ahnst Anders - ...Boiling The Ocean (2008) [FLAC|Lossless|tracks + .cue] <IDM, Abstract, Industrial, Ambient> торрент скачать бесплатно
    Рейтинг →
     (голосов: 1, оценка 5/5, голосовать можно 1 раз )

    Другие торренты по теме:

  • SSH Config Editor 1.3.1 [En]
  • SSH Config Editor 1.4.1 [En]
  • VA - ConfiG Q-B! Sound Top 145 (2016) [MP3|320 Kbps] <House>
  • SSH Config Editor 1.5.1 [En]
  • SSH Config Editor 1.5.3 [En]
  • SSH Config Editor 1.8 [En]
  • VA - Best Config Top 2018 (2018) [MP3|320 Kbps] <Melodic, Caribbean, Tropical>
  • SSH Config Editor 1.11.1 [En]


    • Комментарии (0):

      Информация

      Информация

        Посетители, находящиеся в группе Гости, не могут оставлять комментарии в данной новости.

        ↓ Меню




        ↓ Опрос

        Вы добавили сайт в закладки?
        Да
        Нет


        Популярное

        Дмитрий Маликов - 12 альбомов (1993-2017) [MP3|320 Kbps] <Рор>

        (скачиваний: 119)
        Игорь Корнелюк - Избранное Vol. 3 (2014) [MP3|320 кб / с] <Pop> скачать через торрент бесплатно

        (скачиваний: 79)
        Игорь Корнелюк - Избранное Vol. 1 (2014) [MP3|320 кб / с] <Pop> скачать через торрент бесплатно

        (скачиваний: 53)
        Чиж & Co - Коллекция легендарных песен (2014) [MP3|320 кб / с]<Rock> скачать через торрент бесплатно

        (скачиваний: 51)
        ДиДюЛя - 17 альбомов (2000-2017) дискография [MP3|320 кб / с] <Фолк,Фламенко,Фьюжн>

        (скачиваний: 50)
        Александр Марцинкевич и группа Кабриолет - Лучших 50 песен (2016) Compilation [FLAC|Lossless|WEB-DL|tracks] <Chanson>

        (скачиваний: 39)
        Сергей Трофимов (Трофим) - Дискография (23 альбома) (1995 - 2017) [MP3|320 кб / с] <Шансон, Блюз, Рок>

        (скачиваний: 38)
        Игорь Корнелюк - Избранное Vol. 2 (2014) [MP3|320 кб / с] <Pop> скачать через торрент бесплатно

        (скачиваний: 31)
        Deep Purple - Made In Europe (1976) / 1990, Metal Blade Records / [FLAC|Lossless]<Hard Rock>

        (скачиваний: 24)
        Dee Snider - 8 альбомов (1992-2016) Discography [FLAC|Lossless|image + .cue | tracks +.cue] <Hard Rock>

        (скачиваний: 22)