.
Авторизация | Регистрация
bitok.xyz
» » Стас Намин и Группа ЦВЕТЫ - 40 лет (Полная версия концерта) - Crocus Hall (Live) (2010) HDTVRip [AVC / H.264, 1080p] торрент скачать бесплатно


    Стас Намин и Группа ЦВЕТЫ - 40 лет (Полная версия концерта) - Crocus Hall (Live) (2010) HDTVRip [AVC / H.264, 1080p] торрент скачать бесплатно

    Дата: 15-04-2016, 04:00 | .torrent скачали: 174

    Стас Намин и Группа ЦВЕТЫ - 40 лет (Полная версия концерта) - Crocus Hall (Live) (2010) HDTVRip [AVC / H.264, 1080p]Жанр: Концерт, Rock
    Участники: Стас Намин, Юрий Шевчук, Андрей Макаревич, Гарик Сукачев, Николай Носков, Дмитрий Ревякин, Владимир Пресняков, Александр Маршал, Константин Никольский и др.

    Описание

    Группе Цветы в 2009 году группе исполнилось 40 лет. Свое сорокалетие кумиры 1970 - 80-х отметили большим концертом 6 марта, 2010 г. в Крокус Сити Холле (Москва) участием знаменитых гостей: Людмилы Гурченко, Оскара Фельцмана, Юрия Шевчука, Константина Никольского, Гарика Сукачева, Николая Носкова. В программе прозвучали знаменитые хиты: Колыбельная, Старый рояль, Летний вечер, После дождя, Мы желаем счастья вам… на концерте ЦВЕТЫ – 40. Гости: Юрий Шевчук, Андрей Макаревич, Гарик Сукачев, Николай Носков, Дмитрий Ревякин, Владимир Пресняков, Александр Маршал, Константин Никольский и другие.

    Треклист

    01. Инструментальное вступление.
    02. Я не сдаюсь.
    03. Звёздочка моя ясная.
    04. Есть глаза у цветов.
    05. Колыбельная.
    06. Возьмёмся за руки.
    07. Такая жизнь.
    08. Больше жизни.
    09. Старый рояль.
    10. Рано прощаться.
    11. Летний вечер.
    12. Богатырская сила.
    13. Шарик.
    14. После дождя.
    15. Час пик.
    16. Белые льдины.
    17. Бах творит.
    18. Только рок-н-ролл.
    19. Я найду.
    20. Ностальгия по настоящему.
    21. Юрмала.
    22. Una furtiva lagrima.
    23. Богемская рапсодия/Мы чемпионы.
    24. Ветер перемен.
    25. Распахни своё окно.
    26. Честно говоря.
    27. Свет и радость.
    28. Мы желаем счастья вам.
    Продолжительность: 02: 27: 43
    Качество видео: HDTVRip
    Видео: AVC/H.264, 1920х1080, ~8151 Kbps
    Аудио: MP3, 2 ch, 256 Kbps, CBR Код:
    Общее
    Полное имя : F:Ю-ТубСтас Намин и Группа ЦВЕТЫ - 40 лет (Полная версия концерта) - Crocus Hall (Live) 2010.avi
    Формат : AVI
    Формат/Информация : Audio Video Interleave
    Профиль формата : OpenDML
    Размер файла : 8, 68 Гбайт
    Продолжительность : 2 ч. 27 м.
    Общий поток : 8416 Кбит/сек
    Программа кодирования : Lavf56.36.100
    Видео
    Идентификатор : 1
    Формат : AVC
    Формат/Информация : Advanced Video Codec
    Профиль формата : Main@L4
    Параметр CABAC формата : Да
    Параметр ReFrames формата : 2 кадра
    Параметр GOP формата : M=1, N=25
    Идентификатор кодека : H264
    Продолжительность : 2 ч. 27 м.
    Битрейт : 8151 Кбит/сек
    Ширина : 1920 пикселей
    Высота : 1080 пикселей
    Соотношение сторон : 16:9
    Режим частоты кадров : Переменный
    Частота кадров : 25, 000 кадров/сек
    Цветовое пространство : YUV
    Субдискретизация насыщенности : 4:2:0
    Битовая глубина : 8 бит
    Тип развёртки : Прогрессивная
    Бит/(Пиксели*Кадры) : 0.157
    Размер потока : 8, 41 Гбайт (97%)
    Аудио
    Идентификатор : 0
    Формат : MPEG Audio
    Версия формата : Version 1
    Профиль формата : Layer 3
    Режим : Joint stereo
    Идентификатор кодека : 55
    Идентификатор кодека/Подсказка : MP3
    Продолжительность : 2 ч. 27 м.
    Вид битрейта : Постоянный
    Битрейт : 256 Кбит/сек
    Каналы : 2 канала
    Частота : 44, 1 КГц
    Метод сжатия : С потерями
    Размер потока : 271 Мбайт (3%)
    Выравнивание : Соединение по промежуткам
    Продолжительность промежутка : 40 мс. (1, 00 видеокадр)
    Библиотека кодирования : LAME


    Скриншоты для ознакомления




    Стас Намин и Группа ЦВЕТЫ - 40 лет (Полная версия концерта) - Crocus Hall (Live) (2010) HDTVRip [AVC/H.264, 1080p]
    Рейтинг →
     (голосов: 1, оценка 4/5, голосовать можно 1 раз )

    Другие торренты по теме:

  • Стас Намин и группа "Цветы". Юбилейный концерт "Цветы – 40 лет" (2014) SATRip [576i] скачать через торрент бесплатно
  • Как все начиналось (Стас Намин. Валерий Меладзе) (2016) WEB-DLRip [H.264 / 1080p-LQ]
  • Стас Намин и группа Цветы - Homo Sapiens Flower Power (2013) 2CD [MP3|320 Kbps] <Pop, Rock>


    • Комментарии (0):

      Информация

      Информация

        Посетители, находящиеся в группе Гости, не могут оставлять комментарии в данной новости.

        ↓ Меню




        ↓ Опрос

        Вы добавили сайт в закладки?
        Да
        Нет


        Популярное

        ДиДюЛя - 17 альбомов (2000-2017) дискография [MP3|320 кб / с] <Фолк,Фламенко,Фьюжн>

        (скачиваний: 89)
        Чиж & Co - Коллекция легендарных песен (2014) [MP3|320 кб / с]<Rock> скачать через торрент бесплатно

        (скачиваний: 85)
        Голубой огонек - "В первый час..." (1965) SATRip [H.264] [colourization] скачать через торрент бесплатно

        (скачиваний: 36)
        VA - Большая коллекция клипов в авто (2DIN) (2000-2016) SATRip

        (скачиваний: 30)
        Дима Билан - 12 альбомов, 4 сингла (2003 - 2017) [MP3|320 Kbps] <Pop>

        (скачиваний: 30)
        Стас Намин и Группа ЦВЕТЫ - 40 лет (Полная версия концерта) - Crocus Hall (Live) (2010) HDTVRip [AVC / H.264, 1080p]

        (скачиваний: 28)
        Канцлер Ги - 17 альбомов (2002-2017) [MP3|97-320 kbps]<Нео-Фолк / блюз>

        (скачиваний: 27)
        Дмитрий Маликов - 12 альбомов (1993-2017) [MP3|320 Kbps] <Рор>

        (скачиваний: 27)
        И. С. Бах (J. S. Bach) - Полное собрание произведений (Hanssler 172 CD) (2000) [MP3|320 кб / с] <Classical>

        (скачиваний: 20)
        Ricchi e Poveri - Super Hits Collection (2015) [MP3|320 кб / с]<Pop> скачать через торрент бесплатно

        (скачиваний: 19)