.
Авторизация | Регистрация

bitok.xyz

» » Which Ones Pink (Pink Floyd tribute band) - Live at Whiskey A Go-Go (2016) DVD5 торрент скачать бесплатно

    Which Ones Pink (Pink Floyd tribute band) - Live at Whiskey A Go-Go (2016) DVD5 торрент скачать бесплатно

    Дата: 14-05-2016, 04:00 | .torrent скачали: 42

    Which Ones Pink (Pink Floyd tribute band) - Live at Whiskey A Go-Go (2016) DVD5Производство: AXS.tv
    Жанр: Музыкальный
    Режиссер: AXS.tv
    Актеры: Which One\'s Pink?

    Описание

    Телеверсия концерта Pink Floyd-трибьют группы Which One\'s Pink? на канале AXS.tv (эфир 20.04.2016г)

    Треклист

    01.Intro
    02.In The Flesh?
    03.The Happiest Days Of Our Lives
    04.Another Brick In The Wall, Pt. 2
    05.Young Lust
    06.One Of These Days
    07.Wish You Were Here
    08.Comfortably Numb
    09.Run Like Hell
    10.Breathe (In The Air)
    11.Time
    12.The Great Gig In The Sky
    13.Money
    14.Us And Them
    15.Brain Damage
    16.Eclipse
    17.Embryo (fades out)
    Дата мировой премьеры: 20.04.2016
    Релиз от: eugene6691
    Продолжительность: 01: 18: 41
    Качество видео: DVD5
    Перевод: Отсутствует
    Язык: Английский
    Видео: MPEG-2, 720x480@853x480, ~~ 7849.47 kbps avg
    Аудио: AC3, 6 ch, 384 kbps, CBR;AC3, 2 ch, 448 kbps, CBR Код:
    Полное имя : C:DownloadsWhich Ones Pink 2016VIDEO_TSVIDEO_TS.BUP
    Формат : DVD Video
    Профиль формата : Menu
    Размер файла : 14, 0 Кбайт
    Режим общего битрейта : Переменный
    Видео
    Идентификатор : 224 (0xE0)
    Формат : MPEG Video
    Версия формата : Version 2
    Вид битрейта : Переменный
    Ширина : 720 пикселей
    Высота : 480 пикселей
    Соотношение сторон : 16:9
    Частота кадров : 29, 970 (29970/1000) кадров/сек
    Стандарт вещания : NTSC
    Метод сжатия : С потерями
    Аудио
    Формат : AC-3
    Формат/Информация : Audio Coding 3
    Каналы : 2 канала
    Частота : 48, 0 КГц
    Метод сжатия : С потерями
    Текст
    Формат : RLE
    Формат/Информация : Run-length encoding
    Битовая глубина : 2 бит
    Общее
    Полное имя : C:DownloadsWhich Ones Pink 2016VIDEO_TSVIDEO_TS.IFO
    Формат : DVD Video
    Профиль формата : Menu
    Размер файла : 14, 0 Кбайт
    Режим общего битрейта : Переменный
    Видео
    Идентификатор : 224 (0xE0)
    Формат : MPEG Video
    Версия формата : Version 2
    Вид битрейта : Переменный
    Ширина : 720 пикселей
    Высота : 480 пикселей
    Соотношение сторон : 16:9
    Частота кадров : 29, 970 (29970/1000) кадров/сек
    Стандарт вещания : NTSC
    Метод сжатия : С потерями
    Аудио
    Формат : AC-3
    Формат/Информация : Audio Coding 3
    Каналы : 2 канала
    Частота : 48, 0 КГц
    Метод сжатия : С потерями
    Текст
    Формат : RLE
    Формат/Информация : Run-length encoding
    Битовая глубина : 2 бит
    Общее
    Полное имя : C:DownloadsWhich Ones Pink 2016VIDEO_TSVIDEO_TS.VOB
    Формат : MPEG-PS
    Размер файла : 51, 1 Мбайт
    Продолжительность : 39 с.
    Общий поток : 10, 7 Мбит/сек
    Библиотека кодирования : encoded by TMPGEnc Authoring Works 4 Version. 4.0.11.39
    Видео
    Идентификатор : 224 (0xE0)
    Формат : MPEG Video
    Версия формата : Version 2
    Профиль формата : Main@Main
    Параметр BVOP формата : Да
    Параметр матрицы формата : Выборочная
    Параметр GOP формата : M=3, N=18
    Продолжительность : 39 с.
    Битрейт : 10, 3 Мбит/сек
    Максимальный битрейт : 5000 Кбит/сек
    Ширина : 720 пикселей
    Высота : 480 пикселей
    Соотношение сторон : 16:9
    Частота кадров : 29, 970 (30000/1001) кадров/сек
    Стандарт вещания : NTSC
    Цветовое пространство : YUV
    Субдискретизация насыщенности : 4:2:0
    Битовая глубина : 8 бит
    Тип развёртки : Прогрессивная
    Метод сжатия : С потерями
    Бит/(Пиксели*Кадры) : 0.990
    Временной код первого кадра : 00:00:00:00
    Оригинал временного кода : Group of pictures t_head
    GOP, открыто/закрыто : Открыто
    GOP, открыто/закрыто на первом кадре : Закрыто
    Размер потока : 48, 8 Мбайт (96%)
    Библиотека кодирования : TMPGEnc Authoring Works 4 Version. 4.0.11.39
    Основные цвета : BT.601 NTSC
    Характеристики трансфера : BT.601
    Коэффициенты матрицы : BT.601
    Аудио
    Идентификатор : 189 (0xBD)-128 (0x80)
    Формат : AC-3
    Формат/Информация : Audio Coding 3
    Расширение режима : CM (complete main)
    Параметр Endianness формата : Big
    Режим смешивания : DVD-Video
    Продолжительность : 39 с.
    Вид битрейта : Постоянный
    Битрейт : 256 Кбит/сек
    Каналы : 2 канала
    Расположение каналов : Front: L R
    Частота : 48, 0 КГц
    Частота кадров : 31, 250 кадров/сек (1536 spf)
    Метод сжатия : С потерями
    Размер потока : 1, 22 Мбайт (2%)
    Текст #1
    Идентификатор : 189 (0xBD)-32 (0x20)
    Формат : RLE
    Формат/Информация : Run-length encoding
    Режим смешивания : DVD-Video
    Текст #2
    Идентификатор : 189 (0xBD)-33 (0x21)
    Формат : RLE
    Формат/Информация : Run-length encoding
    Режим смешивания : DVD-Video
    Меню
    Общее
    Полное имя : C:DownloadsWhich Ones Pink 2016VIDEO_TSVTS_01_0.BUP
    Формат : DVD Video
    Профиль формата : Program
    Размер файла : 70, 0 Кбайт
    Продолжительность : 1 ч. 18 м.
    Режим общего битрейта : Переменный
    Общий поток : 121 бит/сек
    Видео
    Идентификатор : 224 (0xE0)
    Формат : MPEG Video
    Версия формата : Version 2
    Продолжительность : 1 ч. 18 м.
    Вид битрейта : Переменный
    Ширина : 720 пикселей
    Высота : 480 пикселей
    Соотношение сторон : 16:9
    Частота кадров : 29, 970 (29970/1000) кадров/сек
    Стандарт вещания : NTSC
    Метод сжатия : С потерями
    Аудио #1
    Идентификатор : 128 (0x80)
    Формат : AC-3
    Формат/Информация : Audio Coding 3
    Продолжительность : 1 ч. 18 м.
    Каналы : 6 каналов
    Частота : 48, 0 КГц
    Метод сжатия : С потерями
    Язык : English
    Аудио #2
    Идентификатор : 129 (0x81)
    Формат : AC-3
    Формат/Информация : Audio Coding 3
    Продолжительность : 1 ч. 18 м.
    Каналы : 2 канала
    Частота : 48, 0 КГц
    Метод сжатия : С потерями
    Язык : English
    Меню
    Продолжительность : 1 ч. 18 м.
    00:00:00.000 : Chapter 1
    00:01:28.433 : Chapter 2
    00:04:22.399 : Chapter 3
    00:06:01.732 : Chapter 4
    00:09:46.032 : Chapter 5
    00:13:35.132 : Chapter 6
    00:19:11.432 : Chapter 7
    00:24:14.332 : Chapter 8
    00:31:28.365 : Chapter 9
    00:36:34.798 : Chapter 10
    00:40:39.197 : Chapter 11
    00:47:31.497 : Chapter 12
    00:52:17.830 : Chapter 13
    00:58:23.496 : Chapter 14
    01:10:15.529 : Chapter 15
    01:14:07.662 : Chapter 16
    01:16:43.528 : Chapter 17
    List (Audio) : 0/1
    Общее
    Полное имя : C:DownloadsWhich Ones Pink 2016VIDEO_TSVTS_01_0.IFO
    Формат : DVD Video
    Профиль формата : Program
    Размер файла : 70, 0 Кбайт
    Продолжительность : 1 ч. 18 м.
    Режим общего битрейта : Переменный
    Общий поток : 121 бит/сек
    Видео
    Идентификатор : 224 (0xE0)
    Формат : MPEG Video
    Версия формата : Version 2
    Продолжительность : 1 ч. 18 м.
    Вид битрейта : Переменный
    Ширина : 720 пикселей
    Высота : 480 пикселей
    Соотношение сторон : 16:9
    Частота кадров : 29, 970 (29970/1000) кадров/сек
    Стандарт вещания : NTSC
    Метод сжатия : С потерями
    Аудио #1
    Идентификатор : 128 (0x80)
    Формат : AC-3
    Формат/Информация : Audio Coding 3
    Продолжительность : 1 ч. 18 м.
    Каналы : 6 каналов
    Частота : 48, 0 КГц
    Метод сжатия : С потерями
    Язык : English
    Аудио #2
    Идентификатор : 129 (0x81)
    Формат : AC-3
    Формат/Информация : Audio Coding 3
    Продолжительность : 1 ч. 18 м.
    Каналы : 2 канала
    Частота : 48, 0 КГц
    Метод сжатия : С потерями
    Язык : English
    Меню
    Продолжительность : 1 ч. 18 м.
    00:00:00.000 : Chapter 1
    00:01:28.433 : Chapter 2
    00:04:22.399 : Chapter 3
    00:06:01.732 : Chapter 4
    00:09:46.032 : Chapter 5
    00:13:35.132 : Chapter 6
    00:19:11.432 : Chapter 7
    00:24:14.332 : Chapter 8
    00:31:28.365 : Chapter 9
    00:36:34.798 : Chapter 10
    00:40:39.197 : Chapter 11
    00:47:31.497 : Chapter 12
    00:52:17.830 : Chapter 13
    00:58:23.496 : Chapter 14
    01:10:15.529 : Chapter 15
    01:14:07.662 : Chapter 16
    01:16:43.528 : Chapter 17
    List (Audio) : 0/1
    Общее
    Полное имя : C:DownloadsWhich Ones Pink 2016VIDEO_TSVTS_01_0.VOB
    Формат : MPEG-PS
    Размер файла : 153 Мбайт
    Продолжительность : 40 с.
    Общий поток : 32, 2 Мбит/сек
    Библиотека кодирования : encoded by TMPGEnc Authoring Works 4 Version. 4.0.11.39
    Видео
    Идентификатор : 224 (0xE0)
    Формат : MPEG Video
    Версия формата : Version 2
    Профиль формата : Main@Main
    Параметр BVOP формата : Да
    Параметр матрицы формата : Выборочная
    Параметр GOP формата : M=3, N=18
    Продолжительность : 39 с.
    Битрейт : 31, 3 Мбит/сек
    Максимальный битрейт : 5000 Кбит/сек
    Ширина : 720 пикселей
    Высота : 480 пикселей
    Соотношение сторон : 16:9
    Частота кадров : 29, 970 (30000/1001) кадров/сек
    Стандарт вещания : NTSC
    Цветовое пространство : YUV
    Субдискретизация насыщенности : 4:2:0
    Битовая глубина : 8 бит
    Тип развёртки : Прогрессивная
    Метод сжатия : С потерями
    Бит/(Пиксели*Кадры) : 3.019
    Временной код первого кадра : 00:00:00:00
    Оригинал временного кода : Group of pictures t_head
    GOP, открыто/закрыто : Открыто
    GOP, открыто/закрыто на первом кадре : Закрыто
    Размер потока : 149 Мбайт (97%)
    Библиотека кодирования : TMPGEnc Authoring Works 4 Version. 4.0.11.39
    Основные цвета : BT.601 NTSC
    Характеристики трансфера : BT.601
    Коэффициенты матрицы : BT.601
    Аудио
    Идентификатор : 189 (0xBD)-128 (0x80)
    Формат : AC-3
    Формат/Информация : Audio Coding 3
    Расширение режима : CM (complete main)
    Параметр Endianness формата : Big
    Режим смешивания : DVD-Video
    Продолжительность : 40 с.
    Вид битрейта : Постоянный
    Битрейт : 256 Кбит/сек
    Каналы : 2 канала
    Расположение каналов : Front: L R
    Частота : 48, 0 КГц
    Частота кадров : 31, 250 кадров/сек (1536 spf)
    Метод сжатия : С потерями
    Размер потока : 1, 22 Мбайт (1%)
    Текст #1
    Идентификатор : 189 (0xBD)-32 (0x20)
    Формат : RLE
    Формат/Информация : Run-length encoding
    Режим смешивания : DVD-Video
    Текст #2
    Идентификатор : 189 (0xBD)-33 (0x21)
    Формат : RLE
    Формат/Информация : Run-length encoding
    Режим смешивания : DVD-Video
    Меню
    Общее
    Полное имя : C:DownloadsWhich Ones Pink 2016VIDEO_TSVTS_01_1.VOB
    Формат : MPEG-PS
    Размер файла : 1024 Мбайт
    Продолжительность : 18 м.
    Режим общего битрейта : Переменный
    Общий поток : 7554 Кбит/сек
    Видео
    Идентификатор : 224 (0xE0)
    Формат : MPEG Video
    Версия формата : Version 2
    Профиль формата : Main@Main
    Параметр BVOP формата : Да
    Параметр матрицы формата : Выборочная
    Параметр GOP формата : Variable
    Продолжительность : 18 м.
    Вид битрейта : Переменный
    Битрейт : 6572 Кбит/сек
    Максимальный битрейт : 8552 Кбит/сек
    Ширина : 720 пикселей
    Высота : 480 пикселей
    Соотношение сторон : 16:9
    Частота кадров : 29, 970 (30000/1001) кадров/сек
    Стандарт вещания : NTSC
    Цветовое пространство : YUV
    Субдискретизация насыщенности : 4:2:0
    Битовая глубина : 8 бит
    Тип развёртки : Прогрессивная
    Метод сжатия : С потерями
    Бит/(Пиксели*Кадры) : 0.634
    Временной код первого кадра : 00:00:00:00
    Оригинал временного кода : Group of pictures t_head
    GOP, открыто/закрыто : Закрыто
    Размер потока : 891 Мбайт (87%)
    Основные цвета : BT.601 NTSC
    Характеристики трансфера : BT.601
    Коэффициенты матрицы : BT.601
    Аудио #1
    Идентификатор : 189 (0xBD)-128 (0x80)
    Формат : AC-3
    Формат/Информация : Audio Coding 3
    Расширение режима : CM (complete main)
    Параметр Endianness формата : Big
    Режим смешивания : DVD-Video
    Продолжительность : 18 м.
    Вид битрейта : Постоянный
    Битрейт : 384 Кбит/сек
    Каналы : 6 каналов
    Расположение каналов : Front: L C R, Side: L R, LFE
    Частота : 48, 0 КГц
    Частота кадров : 31, 250 кадров/сек (1536 spf)
    Метод сжатия : С потерями
    Размер потока : 52, 0 Мбайт (5%)
    Аудио #2
    Идентификатор : 189 (0xBD)-129 (0x81)
    Формат : AC-3
    Формат/Информация : Audio Coding 3
    Расширение режима : CM (complete main)
    Параметр Endianness формата : Big
    Режим смешивания : DVD-Video
    Продолжительность : 18 м.
    Вид битрейта : Постоянный
    Битрейт : 448 Кбит/сек
    Каналы : 2 канала
    Расположение каналов : Front: L R
    Частота : 48, 0 КГц
    Частота кадров : 31, 250 кадров/сек (1536 spf)
    Метод сжатия : С потерями
    Размер потока : 60, 7 Мбайт (6%)
    Меню
    Общее
    Полное имя : C:DownloadsWhich Ones Pink 2016VIDEO_TSVTS_01_2.VOB
    Формат : MPEG-PS
    Размер файла : 1024 Мбайт
    Продолжительность : 19 м.
    Режим общего битрейта : Переменный
    Общий поток : 7513 Кбит/сек
    Видео
    Идентификатор : 224 (0xE0)
    Формат : MPEG Video
    Версия формата : Version 2
    Профиль формата : Main@Main
    Параметр BVOP формата : Да
    Параметр матрицы формата : Выборочная
    Параметр GOP формата : Variable
    Продолжительность : 19 м.
    Вид битрейта : Переменный
    Битрейт : 6532 Кбит/сек
    Максимальный битрейт : 8552 Кбит/сек
    Ширина : 720 пикселей
    Высота : 480 пикселей
    Соотношение сторон : 16:9
    Частота кадров : 29, 970 (30000/1001) кадров/сек
    Стандарт вещания : NTSC
    Цветовое пространство : YUV
    Субдискретизация насыщенности : 4:2:0
    Битовая глубина : 8 бит
    Тип развёртки : Прогрессивная
    Метод сжатия : С потерями
    Бит/(Пиксели*Кадры) : 0.631
    Временной код первого кадра : 00:18:55:26
    Оригинал временного кода : Group of pictures t_head
    Размер потока : 890 Мбайт (87%)
    Основные цвета : BT.601 NTSC
    Характеристики трансфера : BT.601
    Коэффициенты матрицы : BT.601
    Аудио #1
    Идентификатор : 189 (0xBD)-128 (0x80)
    Формат : AC-3
    Формат/Информация : Audio Coding 3
    Расширение режима : CM (complete main)
    Параметр Endianness формата : Big
    Режим смешивания : DVD-Video
    Продолжительность : 19 м.
    Вид битрейта : Постоянный
    Битрейт : 384 Кбит/сек
    Каналы : 6 каналов
    Расположение каналов : Front: L C R, Side: L R, LFE
    Частота : 48, 0 КГц
    Частота кадров : 31, 250 кадров/сек (1536 spf)
    Метод сжатия : С потерями
    Задержка видео : -334 мс.
    Размер потока : 52, 3 Мбайт (5%)
    Аудио #2
    Идентификатор : 189 (0xBD)-129 (0x81)
    Формат : AC-3
    Формат/Информация : Audio Coding 3
    Расширение режима : CM (complete main)
    Параметр Endianness формата : Big
    Режим смешивания : DVD-Video
    Продолжительность : 19 м.
    Вид битрейта : Постоянный
    Битрейт : 448 Кбит/сек
    Каналы : 2 канала
    Расположение каналов : Front: L R
    Частота : 48, 0 КГц
    Частота кадров : 31, 250 кадров/сек (1536 spf)
    Метод сжатия : С потерями
    Задержка видео : -366 мс.
    Размер потока : 61, 1 Мбайт (6%)
    Меню
    Общее
    Полное имя : C:DownloadsWhich Ones Pink 2016VIDEO_TSVTS_01_3.VOB
    Формат : MPEG-PS
    Размер файла : 1024 Мбайт
    Продолжительность : 18 м.
    Режим общего битрейта : Переменный
    Общий поток : 7554 Кбит/сек
    Видео
    Идентификатор : 224 (0xE0)
    Формат : MPEG Video
    Версия формата : Version 2
    Профиль формата : Main@Main
    Параметр BVOP формата : Да
    Параметр матрицы формата : Выборочная
    Параметр GOP формата : M=3, N=18
    Продолжительность : 18 м.
    Вид битрейта : Переменный
    Битрейт : 6571 Кбит/сек
    Максимальный битрейт : 8552 Кбит/сек
    Ширина : 720 пикселей
    Высота : 480 пикселей
    Соотношение сторон : 16:9
    Частота кадров : 29, 970 (30000/1001) кадров/сек
    Стандарт вещания : NTSC
    Цветовое пространство : YUV
    Субдискретизация насыщенности : 4:2:0
    Битовая глубина : 8 бит
    Тип развёртки : Прогрессивная
    Порядок развёртки : Верхнее поле первое
    Метод сжатия : С потерями
    Бит/(Пиксели*Кадры) : 0.634
    Временной код первого кадра : 00:37:58:09
    Оригинал временного кода : Group of pictures t_head
    GOP, открыто/закрыто : Закрыто
    Размер потока : 890 Мбайт (87%)
    Основные цвета : BT.601 NTSC
    Характеристики трансфера : BT.601
    Коэффициенты матрицы : BT.601
    Аудио #1
    Идентификатор : 189 (0xBD)-128 (0x80)
    Формат : AC-3
    Формат/Информация : Audio Coding 3
    Расширение режима : CM (complete main)
    Параметр Endianness формата : Big
    Режим смешивания : DVD-Video
    Продолжительность : 18 м.
    Вид битрейта : Постоянный
    Битрейт : 384 Кбит/сек
    Каналы : 6 каналов
    Расположение каналов : Front: L C R, Side: L R, LFE
    Частота : 48, 0 КГц
    Частота кадров : 31, 250 кадров/сек (1536 spf)
    Метод сжатия : С потерями
    Задержка видео : -707 мс.
    Размер потока : 52, 0 Мбайт (5%)
    Аудио #2
    Идентификатор : 189 (0xBD)-129 (0x81)
    Формат : AC-3
    Формат/Информация : Audio Coding 3
    Расширение режима : CM (complete main)
    Параметр Endianness формата : Big
    Режим смешивания : DVD-Video
    Продолжительность : 18 м.
    Вид битрейта : Постоянный
    Битрейт : 448 Кбит/сек
    Каналы : 2 канала
    Расположение каналов : Front: L R
    Частота : 48, 0 КГц
    Частота кадров : 31, 250 кадров/сек (1536 spf)
    Метод сжатия : С потерями
    Задержка видео : -707 мс.
    Размер потока : 60, 7 Мбайт (6%)
    Меню
    Общее
    Полное имя : C:DownloadsWhich Ones Pink 2016VIDEO_TSVTS_01_4.VOB
    Формат : MPEG-PS
    Размер файла : 1024 Мбайт
    Продолжительность : 18 м.
    Режим общего битрейта : Переменный
    Общий поток : 7675 Кбит/сек
    Видео
    Идентификатор : 224 (0xE0)
    Формат : MPEG Video
    Версия формата : Version 2
    Профиль формата : Main@Main
    Параметр BVOP формата : Да
    Параметр матрицы формата : Выборочная
    Параметр GOP формата : M=3, N=18
    Продолжительность : 18 м.
    Вид битрейта : Переменный
    Битрейт : 6690 Кбит/сек
    Максимальный битрейт : 8552 Кбит/сек
    Ширина : 720 пикселей
    Высота : 480 пикселей
    Соотношение сторон : 16:9
    Частота кадров : 29, 970 (30000/1001) кадров/сек
    Стандарт вещания : NTSC
    Цветовое пространство : YUV
    Субдискретизация насыщенности : 4:2:0
    Битовая глубина : 8 бит
    Тип развёртки : Прогрессивная
    Порядок развёртки : Верхнее поле первое
    Метод сжатия : С потерями
    Бит/(Пиксели*Кадры) : 0.646
    Временной код первого кадра : 00:56:53:22
    Оригинал временного кода : Group of pictures t_head
    GOP, открыто/закрыто : Закрыто
    Размер потока : 892 Мбайт (87%)
    Основные цвета : BT.601 NTSC
    Характеристики трансфера : BT.601
    Коэффициенты матрицы : BT.601
    Аудио #1
    Идентификатор : 189 (0xBD)-128 (0x80)
    Формат : AC-3
    Формат/Информация : Audio Coding 3
    Расширение режима : CM (complete main)
    Параметр Endianness формата : Big
    Режим смешивания : DVD-Video
    Продолжительность : 18 м.
    Вид битрейта : Постоянный
    Битрейт : 384 Кбит/сек
    Каналы : 6 каналов
    Расположение каналов : Front: L C R, Side: L R, LFE
    Частота : 48, 0 КГц
    Частота кадров : 31, 250 кадров/сек (1536 spf)
    Метод сжатия : С потерями
    Задержка видео : -219 мс.
    Размер потока : 51, 2 Мбайт (5%)
    Аудио #2
    Идентификатор : 189 (0xBD)-129 (0x81)
    Формат : AC-3
    Формат/Информация : Audio Coding 3
    Расширение режима : CM (complete main)
    Параметр Endianness формата : Big
    Режим смешивания : DVD-Video
    Продолжительность : 18 м.
    Вид битрейта : Постоянный
    Битрейт : 448 Кбит/сек
    Каналы : 2 канала
    Расположение каналов : Front: L R
    Частота : 48, 0 КГц
    Частота кадров : 31, 250 кадров/сек (1536 spf)
    Метод сжатия : С потерями
    Задержка видео : -219 мс.
    Размер потока : 59, 8 Мбайт (6%)
    Меню
    Общее
    Полное имя : C:DownloadsWhich Ones Pink 2016VIDEO_TSVTS_01_5.VOB
    Формат : MPEG-PS
    Размер файла : 169 Мбайт
    Продолжительность : 3 м. 10 с.
    Режим общего битрейта : Переменный
    Общий поток : 7439 Кбит/сек
    Видео
    Идентификатор : 224 (0xE0)
    Формат : MPEG Video
    Версия формата : Version 2
    Профиль формата : Main@Main
    Параметр BVOP формата : Да
    Параметр матрицы формата : Выборочная
    Параметр GOP формата : M=3, N=18
    Продолжительность : 3 м. 10 с.
    Вид битрейта : Переменный
    Битрейт : 6459 Кбит/сек
    Максимальный битрейт : 8552 Кбит/сек
    Ширина : 720 пикселей
    Высота : 480 пикселей
    Соотношение сторон : 16:9
    Частота кадров : 29, 970 (30000/1001) кадров/сек
    Стандарт вещания : NTSC
    Цветовое пространство : YUV
    Субдискретизация насыщенности : 4:2:0
    Битовая глубина : 8 бит
    Тип развёртки : Прогрессивная
    Порядок развёртки : Верхнее поле первое
    Метод сжатия : С потерями
    Бит/(Пиксели*Кадры) : 0.624
    Временной код первого кадра : 01:15:31:19
    Оригинал временного кода : Group of pictures t_head
    GOP, открыто/закрыто : Закрыто
    Размер потока : 146 Мбайт (87%)
    Основные цвета : BT.601 NTSC
    Характеристики трансфера : BT.601
    Коэффициенты матрицы : BT.601
    Аудио #1
    Идентификатор : 189 (0xBD)-128 (0x80)
    Формат : AC-3
    Формат/Информация : Audio Coding 3
    Расширение режима : CM (complete main)
    Параметр Endianness формата : Big
    Режим смешивания : DVD-Video
    Продолжительность : 3 м. 10 с.
    Вид битрейта : Постоянный
    Битрейт : 384 Кбит/сек
    Каналы : 6 каналов
    Расположение каналов : Front: L C R, Side: L R, LFE
    Частота : 48, 0 КГц
    Частота кадров : 31, 250 кадров/сек (1536 spf)
    Метод сжатия : С потерями
    Задержка видео : -197 мс.
    Размер потока : 8, 71 Мбайт (5%)
    Аудио #2
    Идентификатор : 189 (0xBD)-129 (0x81)
    Формат : AC-3
    Формат/Информация : Audio Coding 3
    Расширение режима : CM (complete main)
    Параметр Endianness формата : Big
    Режим смешивания : DVD-Video
    Продолжительность : 3 м. 10 с.
    Вид битрейта : Постоянный
    Битрейт : 448 Кбит/сек
    Каналы : 2 канала
    Расположение каналов : Front: L R
    Частота : 48, 0 КГц
    Частота кадров : 31, 250 кадров/сек (1536 spf)
    Метод сжатия : С потерями
    Задержка видео : -197 мс.
    Размер потока : 10, 2 Мбайт (6%)
    Меню


    Скриншоты для ознакомления



    Прямая ссылка скачивания через uTorrent


    Which Ones Pink (Pink Floyd tribute band) - Live at Whiskey A Go-Go (2016) DVD5
    Рейтинг →
     (голосов: 1, оценка 4/5, голосовать можно 1 раз )

    Другие торренты по теме:

  • BBC Horizon: В какой Вселенной мы находимся / Which Universe are We in (2015) SATRip скачать через торрент бесплатно
  • One Hundred Thousand - The Forms In Which They Appear (2016) [FLAC|Lossless|tracks] <Alternative, Hard Rock, Progressive>
  • BBC: В какой Вселенной мы находимся / Which Universe Are We In (2014) HDTV [H.264 / 1080i-LQ] (Сезон 51, эпизод 17)
  • Venetian Snares - She Began To Cry Tears Of Blood Which Became Little Brick Houses When They Hit The Ground (2018) [FLAC|Lossless|WEB-DL|tracks] <IDM, Glitch, Breakcore>
  • Кошки и собаки: кто лучше / Cats v Dogs: Which Is Best (2016) HDTVRip (2 серии из 2)


    • Комментарии (0):

      Информация

      Информация

        Посетители, находящиеся в группе Гости, не могут оставлять комментарии в данной новости.

        ↓ Меню




        ↓ Опрос

        Вы добавили сайт в закладки?
        Да
        Нет


        Популярное

        Чиж & Co - Коллекция легендарных песен (2014) [MP3|320 кб / с]<Rock> скачать через торрент бесплатно

        (скачиваний: 203)
        Дима Билан - 12 альбомов, 4 сингла (2003 - 2017) [MP3|320 Kbps] <Pop>

        (скачиваний: 75)
        Paul Mauriat - Дискография (1967-2005) 320 кб / с (1967-2005) [MP3|320]<Instrumental>

        (скачиваний: 71)
        ДиДюЛя - 17 альбомов (2000-2017) дискография [MP3|320 кб / с] <Фолк,Фламенко,Фьюжн>

        (скачиваний: 67)
        Marie Laforet - Lintegrale Festival 1960 / 1970 (1998) [MP3|320 kbps]<French pop, сhanson>

        (скачиваний: 60)
        Дмитрий Маликов - 12 альбомов (1993-2017) [MP3|320 Kbps] <Рор>

        (скачиваний: 52)
        И. С. Бах (J. S. Bach) - Полное собрание произведений (Hanssler 172 CD) (2000) [MP3|320 кб / с] <Classical>

        (скачиваний: 46)
        Louna - The Best Of (2015) [MP3|320 кб / с]<Rock> скачать через торрент бесплатно

        (скачиваний: 39)
        Юлия Славянская - шесть альбомов (2002-2016) [MP3|320 кб / с]<Православная духовная музыка> [Обновлено 04.02.2019]

        (скачиваний: 36)
        Марина Девятова - В день рождения с любовью... (Юбилейный концерт) (2013) WEBRip [H.264 / 720p-LQ]скачать через торрент бесплатно

        (скачиваний: 35)