.
Авторизация | Регистрация

bitok.xyz

» » Самая опасная игра / The Most Dangerous Game / Never Leave Alive (2017) WEB-DLRip [MVO] [AD] торрент скачать бесплатно


    Самая опасная игра / The Most Dangerous Game / Never Leave Alive (2017) WEB-DLRip [MVO] [AD] торрент скачать бесплатно

    Дата: 5-06-2018, 05:00 | .torrent скачали: 7

    Самая опасная игра / The Most Dangerous Game / Never Leave Alive (2017) WEB-DLRip [MVO] [AD]Производство: США/Most Dangerous Game
    Жанр: Приключения
    Режиссер: Стивен Ламорт

    Актеры
    Джон Хенниган, Мишель Тейлор, Эрик Этебари, Джозеф Гатт, Алистэр МакКензи, Дж. Майкл Эванс, Джим Паситти, Дженили Рейес, Келли Монтгомери, Шина Рейс

    Описание

    Участник популярного телешоу Рик Рейндсфор, отправляется в морское путешествие, со своим давним знакомым. Вскоре небольшое пассажирское судно получает пробоину и уходит на дно. Выжить удается только Рику и его новой знакомой Анне Кристи. Они благополучно доплывают до ближайшего острова, где встречают двух местных жителей. Ими оказываются бывшие русские спецназовцы, которые долгое время живут вдали от цивилизации. Только что они делают в этой глуши? Совсем скоро они узнают на собственной шкуре. Оказывается эти крепкие парни, любят поохотиться, но не на диких зверей ...

    Продолжительность: 01: 29: 38
    Качество видео: WEB-DLRip
    Перевод: Многоголосый закадровый, любительский (Синема УС)
    Субтитры: Отсутствуют
    Реклама: Присутствуют вставки текстовой рекламы
    Видео: XviD, 720x400, ~1701 Kbps
    Аудио: AC-3, 2 ch, 384 Kbps

    Общее
    Полное имя : E: NNMСамая опасная играNever Leave Alive 2017 WEB-DLRip.avi
    Формат : AVI
    Формат/Информация : Audio Video Interleave
    Профиль формата : OpenDML
    Размер файла : 1, 31 Гбайт
    Продолжительность : 1 ч. 29 м.
    Общий поток : 2097 Кбит/сек
    Видео
    Идентификатор : 0
    Формат : MPEG-4 Visual
    Профиль формата : Advanced Simple@L5
    Настройки формата : BVOP2/Custom Matrix
    Параметр BVOP формата : 2
    Параметр QPel формата : Нет
    Параметр GMC формата : Без точки перехода
    Параметр матрицы формата : Выборочная
    Идентификатор кодека : XVID
    Идентификатор кодека/Подсказка : XviD
    Продолжительность : 1 ч. 29 м.
    Битрейт : 1701 Кбит/сек
    Ширина : 720 пикселей
    Высота : 400 пикселей
    Соотношение сторон : 16: 9
    Частота кадров : 23, 976 (24000/1001) кадра/сек
    Цветовое пространство : YUV
    Субдискретизация насыщенности : 4: 2: 0
    Битовая глубина : 8 бит
    Тип развёртки : Прогрессивная
    Метод сжатия : С потерями
    Бит/(Пиксели*Кадры) : 0.246
    Размер потока : 1, 07 Гбайт (81%)
    Библиотека кодирования : XviD 1.2.1 (UTC 2008-12-04)
    Аудио
    Идентификатор : 1
    Формат : AC-3
    Формат/Информация : Audio Coding 3
    Идентификатор кодека : 2000
    Продолжительность : 1 ч. 29 м.
    Вид битрейта : Постоянный
    Битрейт : 384 Кбит/сек
    Каналы : 2 канала
    Расположение каналов : Front: L R
    Частота : 48, 0 КГц
    Частота кадров : 31, 250 кадров/сек (1536 SPF)
    Битовая глубина : 16 бит
    Метод сжатия : С потерями
    Размер потока : 246 Мбайт (18%)
    Выравнивание : Соединение по промежуткам
    Продолжительность промежутка : 32 мс. (0, 77 видеокадр)
    ServiceKind/String : Complete Main

    Скриншоты для ознакомления



    Все одноименные релизы в Клубе Время раздачи: 24/7 (до появления первых 3-5 скачавших)


    Самая опасная игра/The Most Dangerous Game/Never Leave Alive (2017) WEB-DLRip [MVO] [AD]
    Рейтинг →
     (голосов: 1, оценка 3/5, голосовать можно 1 раз )

    Другие торренты по теме:

  • Виктор Суворов | Советская военная разведка. Как работала самая могущественная и самая закрытая разведывательная организация XX века (2016) [PDF, DJVU]
  • Татьяна Шишкина | Я #самая желанная #самая счастливая! Лучшая программа преобразования в женщину мечты для каждого мужчины (2016) [FB2, EPUB]
  • Moon + Reader Pro v2.6.6 - Самая популярная читалка книг (18.10.2014) <Ru / Multi>
  • Виктор Петлюра - Самая любимая в мире женщина (2014) [MP3|320 кб / с]<Шансон>
  • Discovery. Самая странная погода на земле / Strangest Weather On Earth (2013) HDTVRip [H.264 / 720p] [1-10 серия из 10]
  • VA - Самая Лучшая Качающая Музыка для Авто. TOP 1000 (2015) [MP3|192-320 кб / с]<Club, Dance, House, Electro, Trance>
  • VA - Полюса. Самая свежая попса (2015) [MP3|256 кб / с]<Pop, Dance>
  • Grand Theft Auto 3 v1.6 - та самая GTA 3 от Rockstar Games [Ru] скачать через торрент бесплатно


    • Комментарии (0):

      Информация

      Информация

        Посетители, находящиеся в группе Гости, не могут оставлять комментарии в данной новости.

        ↓ Меню




        ↓ Опрос

        Вы добавили сайт в закладки?
        Да
        Нет


        Популярное