.
Авторизация | Регистрация

bitok.xyz

» » Великан / Jatten (2016) WEBRip [MVO] [AD] торрент скачать бесплатно


    Великан / Jatten (2016) WEBRip [MVO] [AD] торрент скачать бесплатно

    Дата: 2-07-2018, 05:00 | .torrent скачали: 0

    Великан / Jatten (2016) WEBRip [MVO] [AD]Производство: Швеция, Дания/Beofilm, Film i Väst, Garagefilm International
    Жанр: Драма
    Режиссер: Йоханнес Нюхольм

    Актеры
    Christian Andrén, Йохан Килен, Анна Бйелькеру, Linda Faith, Amin Alabadi, Ola Bjurman, Birgitta Blad, Bengt Carlsson

    Описание

    История тридцатилетнего аутиста Рикарда с врождёнными деформациями тела.

    Релиз от: GreenРай Studio
    Продолжительность: 01: 22: 43
    Качество видео: WEBRip
    Перевод: Многоголосый закадровый, любительский (GreenРай Studio)
    Субтитры: отсутствуют
    Реклама: вставки видео, аудио и текстовой рекламы
    Видео: Xvid, 720x400, ~2168 Kbps
    Аудио: AC3, 2 ch, 192 Kbps

    General
    Complete name : /media/win/TORRENT/UPLOAD_TORRENTS/The.Giant.2016.P.WEB-DLRip.avi
    Format : AVI
    Format/Info : Audio Video Interleave
    Format profile : OpenDML
    File size : 1.37 GiB
    Duration : 1 h 22 min
    Overall bit rate : 2 373 kb/s
    Writing application : Lavf57.83.100
    Video
    ID : 0
    Format : MPEG-4 Visual
    Format profile : Advanced Simple@L5
    Format settings : BVOP2
    Format settings, BVOP : 2
    Format settings, QPel : No
    Format settings, GMC : No warppoints
    Format settings, Matrix : Default (MPEG)
    Codec ID : XVID
    Codec ID/Hint : XviD
    Duration : 1 h 22 min
    Bit rate : 2 168 kb/s
    Width : 720 pixels
    Height : 400 pixels
    Display aspect ratio : 16: 9
    Frame rate : 23.976 (24000/1001) FPS
    Color space : YUV
    Chroma subsampling : 4: 2: 0
    Bit depth : 8 bits
    Scan type : Progressive
    Compression mode : Lossy
    Bits/(Pixel*Frame) : 0.314
    Stream size : 1.25 GiB (91%)
    Writing library : XviD 1.2.1 (UTC 2008-12-04)
    Audio
    ID : 1
    Format : AC-3
    Format/Info : Audio Coding 3
    Codec ID : 2000
    Duration : 1 h 22 min
    Bit rate mode : Constant
    Bit rate : 192 kb/s
    Channel(s) : 2 channels
    Channel positions : Front: L R
    Sampling rate : 48.0 kHz
    Frame rate : 31.250 FPS (1536 SPF)
    Bit depth : 16 bits
    Compression mode : Lossy
    Stream size : 114 MiB (8%)
    Alignment : Aligned on interleaves
    Interleave, duration : 32 ms (0.77 video frame)
    Service kind : Complete Main


    Великан/Jatten (2016) WEBRip [MVO] [AD]
    Рейтинг →
     (голосов: 1, оценка 3/5, голосовать можно 1 раз )

    Другие торренты по теме:

  • Великан-эгоист / The Selfish Giant (2013) BDRip [H.264 / 720р-LQ][VO] скачать через торрент бесплатно
  • Кадзуо Исигуро | Погребенный великан (2016) [FB2]
  • Большой и добрый великан / The BFG (2016) DCPRip [2K] [Hi10P, Hi444PP] [Трейлер]
  • John Williams - The BFG / Большой и добрый великан (Original Motion Picture Soundtrack) (2016) [FLAC|Lossless|CD|tracks]<Soundtrack>
  • John Williams - The BFG / Большой и добрый великан (Original Motion Picture Soundtrack) (2016) [MP3|320 кб / с]<Soundtrack>
  • Большой и добрый великан / The BFG (2016) TS
  • Лия Бережных | Кран-великан (1961) [PDF, DJVU]
  • Большой и добрый великан / The BFG (2016) WEB-DL [H.264 / 1080p-LQ] [EN]


    • Комментарии (0):

      Информация

      Информация

        Посетители, находящиеся в группе Гости, не могут оставлять комментарии в данной новости.

        ↓ Меню




        ↓ Опрос

        Вы добавили сайт в закладки?
        Да
        Нет


        Популярное