.
Авторизация | Регистрация

bitok.xyz

» » История сумасшедшего / Une histoire de fou (2015) HDRip [MVO] [AD] торрент скачать бесплатно


    История сумасшедшего / Une histoire de fou (2015) HDRip [MVO] [AD] торрент скачать бесплатно

    Дата: 2-07-2018, 05:00 | .torrent скачали: 0

    История сумасшедшего / Une histoire de fou (2015) HDRip [MVO] [AD]Производство: Франция/Agat Films Cie, Alvy Productions, Canal+ fr
    Жанр: Драма
    Режиссер: Робер Гедигян

    Актеры
    Симон Абкарян, Ариан Аскарид, Грегуар Лепренс-Ренге, Сайрус Шахиди, Разан Джаммаль, Робинсон Стевенен, Серж Аведикян, Амир Эль Касем

    Описание

    Действие происходит в 80-е годы XX века. Арам, молодой житель Марселя армянских кровей, взрывает машину турецкого посла в Париже. Проезжавший мимо велосипедист Жиль Тесье серьезно ранен. Арам пускается в бега и вступает в освободительную армию Армении в Бейруте, в то время колыбели международного повстанческого движения. В то время в палату Жиля врывается мать Арама Ануш с просьбой о прощении, признаваясь ему, что во всем виноват ее сын. В Бейруте Арам вместе со своими товарищами вступают в ряды диссидентов. В один прекрасный день Арам решается на встречу с Жилем...

    Релиз от: GreenРай Studio
    Продолжительность: 02: 15: 21
    Качество видео: HDRip
    Перевод: Многоголосый закадровый, любительский (GreenРай Studio)
    Субтитры: отсутствуют
    Реклама: вставки видео, аудио и текстовой рекламы
    Видео: Xvid, 720x384, ~1337 Kbps
    Аудио: AC3, 2 ch, 192 Kbps

    General
    Complete name : /media/win/TORRENT/UPLOAD_TORRENTS/Une.Histoire.De.Fou.2015.P.HDRip.1400MB.avi
    Format : AVI
    Format/Info : Audio Video Interleave
    File size : 1.45 GiB
    Duration : 2 h 15 min
    Overall bit rate : 1 539 kb/s
    Writing application : VirtualDubMod 1.5.10.2 (build 2540/release)
    Writing library : VirtualDubMod build 2540/release
    Video
    ID : 0
    Format : MPEG-4 Visual
    Format profile : Advanced Simple@L5
    Format settings : BVOP2
    Format settings, BVOP : 2
    Format settings, QPel : No
    Format settings, GMC : No warppoints
    Format settings, Matrix : Default (MPEG)
    Codec ID : XVID
    Codec ID/Hint : XviD
    Duration : 2 h 15 min
    Bit rate : 1 337 kb/s
    Width : 720 pixels
    Height : 384 pixels
    Display aspect ratio : 1.85: 1
    Frame rate : 25.000 FPS
    Color space : YUV
    Chroma subsampling : 4: 2: 0
    Bit depth : 8 bits
    Scan type : Progressive
    Compression mode : Lossy
    Bits/(Pixel*Frame) : 0.193
    Stream size : 1.26 GiB (87%)
    Writing library : XviD 1.2.1 (UTC 2008-12-04)
    Audio
    ID : 1
    Format : AC-3
    Format/Info : Audio Coding 3
    Codec ID : 2000
    Duration : 2 h 15 min
    Bit rate mode : Constant
    Bit rate : 192 kb/s
    Channel(s) : 2 channels
    Channel positions : Front: L R
    Sampling rate : 48.0 kHz
    Frame rate : 31.250 FPS (1536 SPF)
    Bit depth : 16 bits
    Compression mode : Lossy
    Stream size : 186 MiB (12%)
    Alignment : Split accross interleaves
    Interleave, duration : 40 ms (1.00 video frame)
    Interleave, preload duration : 500 ms
    Service kind : Complete Main

    Скриншоты для ознакомления



    Все одноименные релизы в Клубе
    Время раздачи: с 09: 00 до 21: 00 до пяти скачавших (до появления первых 3-5 скачавших)


    История сумасшедшего/Une histoire de fou (2015) HDRip [MVO] [AD]
    Рейтинг →
     (голосов: 1, оценка 5/5, голосовать можно 1 раз )

    Другие торренты по теме:

  • Побег из сумасшедшего дома: История Нелли Блай / Escaping the Madhouse: The Nellie Bly Story (2019) WEB-DLRip [MVO] [AD]


    • Комментарии (0):

      Информация

      Информация

        Посетители, находящиеся в группе Гости, не могут оставлять комментарии в данной новости.

        ↓ Меню




        ↓ Опрос

        Вы добавили сайт в закладки?
        Да
        Нет


        Популярное