.
Авторизация | Регистрация
bitok.xyz
» » Желтые птицы / The Yellow Birds (2017) WEBRip [MVO] [AD] торрент скачать бесплатно


    Желтые птицы / The Yellow Birds (2017) WEBRip [MVO] [AD] торрент скачать бесплатно

    Дата: 2-07-2018, 05:00 | .torrent скачали: 1

    Желтые птицы / The Yellow Birds (2017) WEBRip [MVO] [AD]Производство: США/Cinelou Films, Echo Films. Kasbah-Film Tanger
    Жанр: Драма, Военный
    Режиссер: Александр Мурс

    Актеры
    Олден Эренрайк, Дженнифер Энистон, Тай Шеридан, Тони Коллетт, Джейсон Патрик, Джек Хьюстон, Ли Тергесен, Роберт Пралго, Айлин Тецель, Рене Уиллетт

    Описание

    Два юных солдата, Брендон Бартл и Дэниел Мерфи, оказываются в самом пекле Иракской войны. Между парнями завязывается крепкая дружба, но домой сможет вернуться только Брендон. Теперь он должен помочь матери Дэниела смириться с потерей и разобраться, как череда случайностей унесла жизнь друга.

    Рейтинг MPAA: R (лицам до 17 лет обязательно присутствие взрослого)
    Релиз от: HiWay Grope
    Продолжительность: 01: 35: 33
    Качество видео: WEBRip
    Перевод: Двуголосый закадровый, любительский (HiWay Grope)
    Субтитры: отсутствуют
    Реклама: вставки видео, аудио и текстовой рекламы
    Видео: Xvid, 720x304, ~1293 Kbps
    Аудио: AC3, 6 ch, 384 Kbps
    General
    Complete name : /media/win/TORRENT/UPLOAD_TORRENTS/The.Yellow.Birds.2018.WEBRip.avi
    Format : AVI
    Format/Info : Audio Video Interleave
    File size : 1.13 GiB
    Duration : 1 h 35 min
    Overall bit rate : 1 687 kb/s
    Writing application : VirtualDubMod 1.5.10.2 (build 2540/release)
    Writing library : VirtualDubMod build 2540/release
    Video
    ID : 0
    Format : xvid
    Codec ID : xvid
    Duration : 1 h 35 min
    Bit rate : 1 293 kb/s
    Width : 720 pixels
    Height : 304 pixels
    Display aspect ratio : 2.35: 1
    Frame rate : 25.000 FPS
    Bits/(Pixel*Frame) : 0.236
    Stream size : 884 MiB (77%)
    Audio
    ID : 1
    Format : AC-3
    Format/Info : Audio Coding 3
    Codec ID : 2000
    Duration : 1 h 35 min
    Bit rate mode : Constant
    Bit rate : 384 kb/s
    Channel(s) : 6 channels
    Channel positions : Front: L C R, Side: L R, LFE
    Sampling rate : 48.0 kHz
    Frame rate : 31.250 FPS (1536 SPF)
    Bit depth : 16 bits
    Compression mode : Lossy
    Stream size : 262 MiB (23%)
    Alignment : Split accross interleaves
    Interleave, duration : 40 ms (1.00 video frame)
    Interleave, preload duration : 500 ms
    Service kind : Complete Main


    Желтые птицы/The Yellow Birds (2017) WEBRip [MVO] [AD]
    Рейтинг →
     (голосов: 1, оценка 5/5, голосовать можно 1 раз )

    Другие торренты по теме:

  • Влияние гамма-лучей на бледно-желтые ноготки / The Effect of Gamma Rays on Man-in-the-Moon Marigolds (1972) HDTV [1080i]
  • Наташа Королёва - Желтые Тюльпаны (1991) [DSD2.0|5,64MHz / 1bit|image+.cue|Tape-Rip] <Pop, Disco>
  • Желтые цветы на зеленой траве / Tôi thay hoa vàng trên co xanh (Yellow Flowers on the Green Grass) (2015) HDTVRip [VO]


    • Комментарии (0):

      Информация

      Информация

        Посетители, находящиеся в группе Гости, не могут оставлять комментарии в данной новости.

        ↓ Меню




        ↓ Опрос

        Вы добавили сайт в закладки?
        Да
        Нет


        Популярное