.
Авторизация | Регистрация

bitok.xyz

» » В поисках праздника / The Leisure Seeker (2017) HDRip [MVO] [AD] торрент скачать бесплатно


    В поисках праздника / The Leisure Seeker (2017) HDRip [MVO] [AD] торрент скачать бесплатно

    Дата: 2-07-2018, 05:00 | .torrent скачали: 0

    В поисках праздника / The Leisure Seeker (2017) HDRip [MVO] [AD]Производство: Италия, Франция/Bac Films, Indiana Production Company, Ministero per i Beni e le Attività Culturali
    Жанр: Драма, Мелодрама, Комедия
    Режиссер: Паоло Вирдзи

    Актеры
    Хелен Миррен, Дональд Сазерленд, Кристиан МакКэй, Джанель Молони, Дэна Айви, Дик Грегори, Леандер Сулейман, Ахмед Хуссэйн, Габриэлла Цила

    Описание

    История пожилых супругов Джона и Эллы, чья жизнь из-за прогрессирующих болезней близится к закату. Они сбегают от своих взрослых детей и врачей на старом фургоне, чтобы посетить дорогие им места и напоследок счастливо провести время вместе.

    Рейтинг MPAA: R (лицам до 17 лет обязательно присутствие взрослого)
    Релиз от: GreenРай Studio
    Продолжительность: 01: 52: 55
    Качество видео: HDRip
    Перевод: Многоголосый закадровый, любительский (GreenРай Studio)
    Субтитры: отсутствуют
    Реклама: вставки видео, аудио и текстовой рекламы
    Видео: Xvid, 720x304, ~1532 Kbps
    Аудио: AC3, 2 ch, 192 Kbps

    General
    Complete name : /media/win/TORRENT/UPLOAD_TORRENTS/The.Leisure.Seeker.2017.P.HDRip.1400MB.avi
    Format : AVI
    Format/Info : Audio Video Interleave
    File size : 1.37 GiB
    Duration : 1 h 52 min
    Overall bit rate : 1 733 kb/s
    Writing application : VirtualDubMod 1.5.10.2 (build 2540/release)
    Writing library : VirtualDubMod build 2540/release
    Video
    ID : 0
    Format : MPEG-4 Visual
    Format profile : Advanced Simple@L5
    Format settings : BVOP2
    Format settings, BVOP : 2
    Format settings, QPel : No
    Format settings, GMC : No warppoints
    Format settings, Matrix : Default (MPEG)
    Codec ID : XVID
    Codec ID/Hint : XviD
    Duration : 1 h 52 min
    Bit rate : 1 532 kb/s
    Width : 720 pixels
    Height : 304 pixels
    Display aspect ratio : 2.35: 1
    Frame rate : 24.000 FPS
    Color space : YUV
    Chroma subsampling : 4: 2: 0
    Bit depth : 8 bits
    Scan type : Progressive
    Compression mode : Lossy
    Bits/(Pixel*Frame) : 0.292
    Stream size : 1.21 GiB (88%)
    Writing library : XviD 1.2.1 (UTC 2008-12-04)
    Audio
    ID : 1
    Format : AC-3
    Format/Info : Audio Coding 3
    Codec ID : 2000
    Duration : 1 h 52 min
    Bit rate mode : Constant
    Bit rate : 192 kb/s
    Channel(s) : 2 channels
    Channel positions : Front: L R
    Sampling rate : 48.0 kHz
    Frame rate : 31.250 FPS (1536 SPF)
    Bit depth : 16 bits
    Compression mode : Lossy
    Stream size : 155 MiB (11%)
    Alignment : Split accross interleaves
    Interleave, duration : 42 ms (1.00 video frame)
    Interleave, preload duration : 500 ms
    Service kind : Complete Main


    В поисках праздника/The Leisure Seeker (2017) HDRip [MVO] [AD]
    Рейтинг →
     (голосов: 1, оценка 4/5, голосовать можно 1 раз )

    Другие торренты по теме:

  • В поисках праздника / The Leisure Seeker (2017) HDRip [MVO] [AD]


    • Комментарии (0):

      Информация

      Информация

        Посетители, находящиеся в группе Гости, не могут оставлять комментарии в данной новости.

        ↓ Меню




        ↓ Опрос

        Вы добавили сайт в закладки?
        Да
        Нет


        Популярное