ВАЖНО! Сайт скоро заблокируют! Подписывайся на наш канал в Telegram https://t.me/torrentok и получи доступ к торрентам без ограничений!
.
Авторизация | Регистрация
bitok.xyz
Торрент скачать бесплатно Другое торрент скачать Жизнь наизнанку / La vie a lenvers (2014) HDTVRip [MVO] [AD] торрент скачать бесплатно


    Жизнь наизнанку / La vie a lenvers (2014) HDTVRip [MVO] [AD] торрент скачать бесплатно

    Дата: 2-07-2018, 05:00 | .torrent скачали: 6

    Жизнь наизнанку / La vie a lenvers (2014) HDTVRip [MVO] [AD]Производство: Франция/Caminando Productions, AB Productions, France Télévisions See
    Жанр: Комедия, Драма
    Режиссер: Анн Джаффери

    Актеры
    Паскаль Арбийо, Sophie Bacry Picciotto, Жюльен Буасселье, Изабель Карре, Гийом де Тонкедек, Марта Келлер, Барбара Шульц

    Описание

    У 68-летней Нины есть три взрослых дочери: Клэр, Жюли и Одиль. Они очень любят свою маму, и когда однажды она не вернулась домой на обед после купания в море, забеспокоились. К счастью девушек им удалось найти Нину в больнице. Однако она не помнила, как там оказалась. Со временем дочери стали замечать странности и изменения в её характере и поведении. Они решают отправиться с Ниной в больницу, чтобы женщина прошла обследования и тесты. У мамы трёх дочерей диагностируют начальную стадию болезни Альцгеймера. Каждый день они становятся свидетелями прогрессирующего заболевания. Несмотря на свои личные проблемы, сёстры решают объединить усилия, чтобы вместе справится и пережить внезапно свалившееся горе...

    Релиз от: GreenРай Studio
    Продолжительность: 01: 31: 16
    Качество видео: HDTVRip
    Перевод: Многоголосый закадровый, любительский (GreenРай Studio)
    Субтитры: Русские (неотключаемые)
    Реклама: вставки видео, аудио и текстовой рекламы
    Видео: Xvid, 720x400, ~1947 Kbps
    Аудио: AC3, 2 ch, 192 Kbps
    General
    Complete name : /media/win/TORRENT/UPLOAD_TORRENTS/La Vie l\'envers.2014.P.HDTVRip.avi
    Format : AVI
    Format/Info : Audio Video Interleave
    Format profile : OpenDML
    File size : 1.37 GiB
    Duration : 1 h 31 min
    Overall bit rate : 2 151 kb/s
    Writing application : Lavf58.12.100
    Video
    ID : 0
    Format : MPEG-4 Visual
    Format profile : Advanced Simple@L5
    Format settings : BVOP2
    Format settings, BVOP : 2
    Format settings, QPel : No
    Format settings, GMC : No warppoints
    Format settings, Matrix : Default (MPEG)
    Codec ID : XVID
    Codec ID/Hint : XviD
    Duration : 1 h 31 min
    Bit rate : 1 947 kb/s
    Width : 720 pixels
    Height : 400 pixels
    Display aspect ratio : 16: 9
    Frame rate : 23.976 (24000/1001) FPS
    Color space : YUV
    Chroma subsampling : 4: 2: 0
    Bit depth : 8 bits
    Scan type : Progressive
    Compression mode : Lossy
    Bits/(Pixel*Frame) : 0.282
    Stream size : 1.24 GiB (91%)
    Writing library : XviD 1.2.1 (UTC 2008-12-04)
    Audio
    ID : 1
    Format : AC-3
    Format/Info : Audio Coding 3
    Codec ID : 2000
    Duration : 1 h 31 min
    Bit rate mode : Constant
    Bit rate : 192 kb/s
    Channel(s) : 2 channels
    Channel positions : Front: L R
    Sampling rate : 48.0 kHz
    Frame rate : 31.250 FPS (1536 SPF)
    Bit depth : 16 bits
    Compression mode : Lossy
    Stream size : 125 MiB (9%)
    Alignment : Aligned on interleaves
    Interleave, duration : 32 ms (0.77 video frame)
    Service kind : Complete Main

    Скриншоты для ознакомления



    Все одноименные релизы в Клубе
    Время раздачи: с 09: 00 до 21: 00 до пяти скачавших (до появления первых 3-5 скачавших)

    Жизнь наизнанку / La vie a lenvers (2014) HDTVRip [MVO] [AD] торрент скачать бесплатно
    Рейтинг →
     (голосов: 1, оценка 4/5, голосовать можно 1 раз )

    Другие торренты по теме:

  • Невидимая жизнь Эвридики / A Vida Invisivel (2019) WEB-DLRip [MVO] [AD]
  • Невидимая жизнь Эвридики / A Vida Invisivel (2019) WEB-DLRip [H.264 / 1080p-LQ] [MVO] [AD]
  • Гай Лешцинер | Мозг, ты спишь 14 историй, которые приоткроют дверь в ночную жизнь нашего самого загадочного органа (2020) [EPUB]
  • Билл ОХэнлон | Действуй иначе! Десять элементарных способов изменить свою жизнь к лучшему (2020) [EPUB]
  • Невидимая жизнь Эвридики / A Vida Invisivel / Invisible Life (2019) WEB-DL [H.264 / 1080p-LQ]
  • Николай Сорокин | Всюду жизнь (1899) [PDF]
  • Знать будущее. Жизнь после Ванги. История 12. Вторая жизнь (2014.11.19) SATRip скачать через торрент бесплатно
  • Жизнь морских обитателей (Морская жизнь) / Fish Life (2009-2010) HDTVRip [H.264 / 720p] [1-12 серия из 12] скачать через торрент бесплатно


    • Комментарии (0):

      Информация

      Информация

        Посетители, находящиеся в группе Гости, не могут оставлять комментарии в данной новости.