.
Авторизация | Регистрация

bitok.xyz

» » Конец пути / Journeys End (2017) WEBRip [MVO] [AD] торрент скачать бесплатно


    Конец пути / Journeys End (2017) WEBRip [MVO] [AD] торрент скачать бесплатно

    Дата: 5-07-2018, 21:46 | .torrent скачали: 0

    Конец пути / Journeys End (2017) WEBRip [MVO] [AD]Производство: Великобритания/British Film Company, Fluidity Films
    Жанр: Драма, Военный
    Режиссер: Сол Дибб

    Актеры
    Пол Беттани, Сэм Клафлин, Стивен Грэм, Эйса Баттерфилд, Тоби Джонс, Том Старридж, Роберт Гленистер, Майлз Джапп, Тео Барклем-Биггз, Николас Эгнью

    Описание

    История о группе британских офицеров в последнюю весну Первой мировой войны. Молодой и наивный лейтенант Рейли присоединяется на фронте к своему кумиру детства и другу семьи, капитану Стэнхоупу, не подозревая, как тот изменился за годы службы. Их отряд теснится в окопах в ожидании сокрушительной атаки немцев.

    Рейтинг MPAA: R (лицам до 17 лет обязательно присутствие взрослого)
    Релиз от: HiWay Grope
    Продолжительность: 01: 48: 14
    Качество видео: WEBRip
    Перевод: Двуголосый закадровый, любительский (HiWay Grope)
    Субтитры: отсутствуют
    Реклама: вставки видео, аудио и текстовой рекламы
    Видео: Xvid, 720x304, ~1470 Kbps
    Аудио: AC3, 6 ch, 384 Kbps

    General
    Complete name : /media/win/TORRENT/UPLOAD_TORRENTS/Journeys.End.2017.WEBRip.avi
    Format : AVI
    Format/Info : Audio Video Interleave
    File size : 1.41 GiB
    Duration : 1 h 48 min
    Overall bit rate : 1 863 kb/s
    Writing application : VirtualDubMod 1.5.10.3 (build 2550/release)
    Writing library : VirtualDubMod build 2550/release
    Video
    ID : 0
    Format : MPEG-4 Visual
    Format profile : Advanced Simple@L5
    Format settings : BVOP1
    Format settings, BVOP : 1
    Format settings, QPel : No
    Format settings, GMC : No warppoints
    Format settings, Matrix : Default (MPEG)
    Codec ID : XVID
    Codec ID/Hint : XviD
    Duration : 1 h 48 min
    Bit rate : 1 470 kb/s
    Width : 720 pixels
    Height : 304 pixels
    Display aspect ratio : 2.35: 1
    Frame rate : 24.000 FPS
    Color space : YUV
    Chroma subsampling : 4: 2: 0
    Bit depth : 8 bits
    Scan type : Progressive
    Compression mode : Lossy
    Bits/(Pixel*Frame) : 0.280
    Stream size : 1.11 GiB (79%)
    Writing library : XviD 73
    Audio
    ID : 1
    Format : AC-3
    Format/Info : Audio Coding 3
    Codec ID : 2000
    Duration : 1 h 48 min
    Bit rate mode : Constant
    Bit rate : 384 kb/s
    Channel(s) : 6 channels
    Channel positions : Front: L C R, Side: L R, LFE
    Sampling rate : 48.0 kHz
    Frame rate : 31.250 FPS (1536 SPF)
    Bit depth : 16 bits
    Compression mode : Lossy
    Stream size : 297 MiB (21%)
    Alignment : Split accross interleaves
    Interleave, duration : 42 ms (1.00 video frame)
    Interleave, preload duration : 500 ms
    Service kind : Complete Main

    Скриншоты для ознакомления



    Все одноименные релизы в Клубе
    Время раздачи: с 09: 00 до 21: 00 до пяти скачавших (до появления первых 3-5 скачавших)


    Конец пути/Journeys End (2017) WEBRip [MVO] [AD]
    Рейтинг →
     (голосов: 1, оценка 3/5, голосовать можно 1 раз )

    Другие торренты по теме:

  • Александр Прозоров | Конец пути [Ведун - Книга 11] (2013) [m4b|AAC]
  • Конец пути / Journeys End (2017) BDRemux [H.264 / 1080p] [EN / EN Sub]
  • Ярослав Гжендович | Конец пути (2019) [FB2]
  • Александр Прозоров | Конец пути [Ведун-11] (2013) [MP3]
  • Ярослав Гжендович | Конец пути (2019) [MP3]
  • Последняя битва (Конец пути) / Journeys End (2017) BDRip [H.264 / 720p]


    • Комментарии (0):

      Информация

      Информация

        Посетители, находящиеся в группе Гости, не могут оставлять комментарии в данной новости.

        ↓ Меню




        ↓ Опрос

        Вы добавили сайт в закладки?
        Да
        Нет


        Популярное