.
Авторизация | Регистрация

bitok.xyz

» » Где Кайра / Where Is Kyra (2017) WEBRip [MVO] [AD] торрент скачать бесплатно


    Где Кайра / Where Is Kyra (2017) WEBRip [MVO] [AD] торрент скачать бесплатно

    Дата: 7-07-2018, 05:00 | .torrent скачали: 4

    Где Кайра / Where Is Kyra (2017) WEBRip [MVO] [AD]Производство: Великобритания, США/Big Indie Pictures, Killer Films, Little Minx
    Жанр: Драма
    Режиссер: Эндрю Досунму

    Актеры
    Мишель Пфайффер, Кифер Сазерленд, Сюзанн Шеперд, Сэм Робардс, Брэдли У. Андерсон, Селия Ау, МаамеЯа Боафо, Хорхе Чапа, Элизабет Эванс

    Описание

    Кроткая скрытная Кайра начинает увядать после смерти матери. Когда она все больше отдаляется от людей и замыкается в себе, женщина решает предпринять последнюю отчаянную попытку, чтобы её не выселили. Кроме того, она находит утешение в другой одинокой душе — Даге, от которого она изначально пытается скрыть свое бедственное положение, но Кайра медленно вплетает его в свой обман.

    Рейтинг MPAA: R (лицам до 17 лет обязательно присутствие взрослого)
    Релиз от: HiWay Grope
    Продолжительность: 01: 39: 39
    Качество видео: WEBRip
    Перевод: Двуголосый закадровый, любительский (HiWay Grope)
    Субтитры: отсутствуют
    Реклама: аудио, видео и текстовые вставки рекалмы
    Видео: Xvid, 720x304, ~1190 Kbps
    Аудио: AC3, 6 ch, 224 Kbps

    General
    Complete name : /media/win/TORRENT/UPLOAD_TORRENTS/Where.Is.Kyra.2017.WEBRip.avi
    Format : AVI
    Format/Info : Audio Video Interleave
    File size : 1 015 MiB
    Duration : 1 h 39 min
    Overall bit rate : 1 424 kb/s
    Writing application : VirtualDubMod 1.5.10.3 (build 2550/release)
    Writing library : VirtualDubMod build 2550/release
    Video
    ID : 0
    Format : MPEG-4 Visual
    Format profile : Advanced Simple@L5
    Format settings : BVOP1
    Format settings, BVOP : 1
    Format settings, QPel : No
    Format settings, GMC : No warppoints
    Format settings, Matrix : Default (MPEG)
    Codec ID : XVID
    Codec ID/Hint : XviD
    Duration : 1 h 39 min
    Bit rate : 1 191 kb/s
    Width : 720 pixels
    Height : 304 pixels
    Display aspect ratio : 2.35: 1
    Frame rate : 23.976 (24000/1001) FPS
    Original frame rate : 23.976 (23976/1000) FPS
    Color space : YUV
    Chroma subsampling : 4: 2: 0
    Bit depth : 8 bits
    Scan type : Progressive
    Compression mode : Lossy
    Bits/(Pixel*Frame) : 0.227
    Stream size : 849 MiB (84%)
    Writing library : XviD 73
    Audio
    ID : 1
    Format : AC-3
    Format/Info : Audio Coding 3
    Codec ID : 2000
    Duration : 1 h 39 min
    Bit rate mode : Constant
    Bit rate : 224 kb/s
    Channel(s) : 6 channels
    Channel positions : Front: L C R, Side: L R, LFE
    Sampling rate : 48.0 kHz
    Frame rate : 31.250 FPS (1536 SPF)
    Bit depth : 16 bits
    Compression mode : Lossy
    Stream size : 160 MiB (16%)
    Alignment : Split accross interleaves
    Interleave, duration : 42 ms (1.00 video frame)
    Interleave, preload duration : 500 ms
    Service kind : Complete Main

    Скриншоты для ознакомления



    Все одноименные релизы в Клубе
    Время раздачи: с 09: 00 до 21: 00 до пяти скачавших (до появления первых 3-5 скачавших)


    Где Кайра/Where Is Kyra (2017) WEBRip [MVO] [AD]
    Рейтинг →
     (голосов: 1, оценка 3/5, голосовать можно 1 раз )

    Другие торренты по теме:

  • Где Кайра / Where Is Kyra (2017) BDRemux [H.264 / 1080p] [EN / EN, Fr, Sp Sub]
  • Где Кайра / Where Is Kyra (2017) BDRemux [H.264 / 1080p] [EN / RU, EN Sub]


    • Комментарии (0):

      Информация

      Информация

        Посетители, находящиеся в группе Гости, не могут оставлять комментарии в данной новости.

        ↓ Меню




        ↓ Опрос

        Вы добавили сайт в закладки?
        Да
        Нет


        Популярное