.
Авторизация | Регистрация

bitok.xyz

» » Страх и ненависть в Лас-Вегасе / Fear and Loathing in Las Vegas (1998) BDRip [H.264 / 1080p] [Hybrid] [Open Matte] торрент скачать бесплатно


    Страх и ненависть в Лас-Вегасе / Fear and Loathing in Las Vegas (1998) BDRip [H.264 / 1080p] [Hybrid] [Open Matte] торрент скачать бесплатно

    Дата: 12-07-2018, 05:00 | .torrent скачали: 2

    Страх и ненависть в Лас-Вегасе / Fear and Loathing in Las Vegas (1998) BDRip [H.264 / 1080p] [Hybrid] [Open Matte]Производство: США/Universal Pictures, Summit Entertainment, Rhino Films
    Жанр: Драма, комедия, экранизация
    Режиссер: Терри Гиллиам
    Продюсер: Патрик Кассаветти, Лайла Набулси, Стефен Немет

    Актеры
    Джонни Депп, Кэмерон Диаз, Бенисио дель Торо, Тоби Магуайр, Эллен Баркин, Гэри Бьюзи, Кристина Риччи, Марк Хэрмон, Кэтрин Хелмонд, Майкл Джитер

    Описание

    Два приятеля едут в Лас-Вегас. Спортивный обозреватель Рауль Дьюк едет, чтобы осветить знаменитую Минт 400. Его спутника зовут Доктор Гонзо, и он адвокат. Обзор Минт 400 из-за непогоды и отсутствия интереса у рецензента оборачивается полным провалом, и Дьюк и Гонзо отправляются в казино.

    Возраст: 18+ (зрителям, достигшим 18 лет. запрещено для детей)
    Рейтинг MPAA: R (лицам до 17 лет обязательно присутствие взрослого)
    Релиз от: BlueBird
    Продолжительность: 01: 58: 22
    Качество: BDRip 1080p (Hybrid)
    Перевод: Дублированный (BD EUR), Профессиональный (многоголосый, закадровый), Авторский
    Субтитры: Русские (West video, Гаврилов, Stewie, sunny-sko), английские (full, SDH)
    Видео: AVC/H.264, 1920x1080, (16: 9), ~19.7 Mbps, 23.976 fps
    Аудио 01: DTS, 6 ch, 768 kbps - Русский, Дубляж (BD EUR)
    Аудио 02: AC3, 6 ch, 448 kbps - Русский (DVO Tycoon)
    Аудио 03: AC3, 6 ch, 448 kbps - Русский (DVO West Video)
    Аудио 04: AC3, 2 ch, 192 kbps - Русский (MVO ОРТ)
    Аудио 05: DTS, 6 ch, 1509 kbps - Русский (DVO Гланц и Королева)
    Аудио 06: AC3, 2 ch, 192 kbps - Русский (DVO НТВ)
    Аудио 07: AC3, 2 ch, 192 kbps - Русский (DVO РТР)
    Аудио 08: DTS, 6 ch, 1509 kbps - Русский (AVO Гаврилов)
    Аудио 09: AC3, 6 ch, 448 kbps - Русский (AVO Живов)
    Аудио 10: AC3, 6 ch, 448 kbps - Русский (AVO Казаков, версия 1)
    Аудио 11: AC3, 6 ch, 448 kbps - Русский (AVO Казаков, версия 2)
    Аудио 12: AC3, 6 ch, 448 kbps - Русский (VO Наследников aka MrRose)
    Аудио 13: AC3, 6 ch, 640 kbps - Украинский (MVO Цікава ідея)
    Аудио 14: DTS, 6 ch, 1509 kbps - Английский (Оригинал)
    Аудио 15: AC3, 2 ch, 192 kbps - Английский (Commentary with Terry Gilliam)
    Аудио 16: AC3, 2 ch, 192 kbps - Английский (Commentary with Johnny Depp, Benicio Del Toro and producer Laila Nabulsi)
    Аудио 17: AC3, 2 ch, 192 kbps - Английский (Commentary with author Hunter S. Thompson and his assistant Anita Baymont)
    General
    Unique ID : 239276496616105942788110650267875182111 (0xB402FA1B7FC4F7A6B17C2786D090861F)
    Complete name : S: Fear.and.Loathing.in.Las.Vegas.1998.Open.Matte.1080p-BLUEBIRD.mkv
    Format : Matroska
    Format version : Version 4/Version 2
    File size : 24.4 GiB
    Duration : 1 h 58 min
    Overall bit rate : 29.5 Mb/s
    Movie name : Fear and Loathing in Las Vegas (1998)
    Encoded date : UTC 2017-12-24 14: 05: 59
    Writing application : mkvmerge v17.0.0 (\'Be Ur Friend\') 64-bit
    Writing library : libebml v1.3.5 + libmatroska v1.4.8
    Cover : Yes
    Attachments : cover
    Video
    ID : 1
    Format : AVC
    Format/Info : Advanced Video Codec
    Format profile : High@L4.1
    Format settings : CABAC/4 Ref Frames
    Format settings, CABAC : Yes
    Format settings, ReFrames : 4 frames
    Codec ID : V_MPEG4/ISO/AVC
    Duration : 1 h 58 min
    Bit rate : 19.7 Mb/s
    Width : 1 920 pixels
    Height : 1 080 pixels
    Display aspect ratio : 16: 9
    Frame rate mode : Constant
    Frame rate : 23.976 (24000/1001) FPS
    Color space : YUV
    Chroma subsampling : 4: 2: 0
    Bit depth : 8 bits
    Scan type : Progressive
    Bits/(Pixel*Frame) : 0.397
    Stream size : 16.3 GiB (67%)
    Writing library : x264 core 152 r2851 ba24899
    Encoding settings : cabac=1/ref=4/deblock=1: -3: -3/analyse=0x3: 0x113/me=umh/subme=10/psy=1/psy_rd=1.00: 0.00/mixed_ref=1/me_range=32/chroma_me=1/trellis=2/8x8dct=1/cqm=0/deadzone=21, 11/fast_pskip=1/chroma_qp_offset=-2/threads=12/lookahead_threads=2/sliced_threads=0/nr=0/decimate=1/interlaced=0/bluray_compat=0/constrained_intra=0/bframes=8/b_pyramid=2/b_adapt=2/b_bias=0/direct=1/weightb=1/open_gop=0/weightp=2/keyint=240/keyint_min=23/scenecut=40/intra_refresh=0/rc_lookahead=40/rc=crf/mbtree=0/crf=17.0/qcomp=0.60/qpmin=0/qpmax=69/qpstep=4/vbv_maxrate=50000/vbv_bufsize=62500/crf_max=0.0/nal_hrd=none/filler=0/ip_ratio=1.40/pb_ratio=1.30/aq=1: 1.00
    Language : English
    Default : Yes
    Forced : No
    Color range : Limited
    Color primaries : BT.709
    Transfer characteristics : BT.709
    Matrix coefficients : BT.709
    Audio #1
    ID : 2
    Format : DTS
    Format/Info : Digital Theater Systems
    Codec ID : A_DTS
    Duration : 1 h 58 min
    Bit rate mode : Constant
    Bit rate : 768 kb/s
    Channel(s) : 6 channels
    Channel positions : Front: L C R, Side: L R, LFE
    Sampling rate : 48.0 kHz
    Frame rate : 93.750 FPS (512 SPF)
    Bit depth : 24 bits
    Compression mode : Lossy
    Stream size : 650 MiB (3%)
    Title : Dub
    Language : Russian
    Default : Yes
    Forced : No
    Audio #2
    ID : 3
    Format : AC-3
    Format/Info : Audio Coding 3
    Codec ID : A_AC3
    Duration : 1 h 58 min
    Bit rate mode : Constant
    Bit rate : 448 kb/s
    Channel(s) : 6 channels
    Channel positions : Front: L C R, Side: L R, LFE
    Sampling rate : 48.0 kHz
    Frame rate : 31.250 FPS (1536 SPF)
    Bit depth : 16 bits
    Compression mode : Lossy
    Stream size : 378 MiB (2%)
    Title : DVO Tycoon
    Language : Russian
    Service kind : Complete Main
    Default : No
    Forced : No
    Audio #3
    ID : 4
    Format : AC-3
    Format/Info : Audio Coding 3
    Codec ID : A_AC3
    Duration : 1 h 58 min
    Bit rate mode : Constant
    Bit rate : 448 kb/s
    Channel(s) : 6 channels
    Channel positions : Front: L C R, Side: L R, LFE
    Sampling rate : 48.0 kHz
    Frame rate : 31.250 FPS (1536 SPF)
    Bit depth : 16 bits
    Compression mode : Lossy
    Stream size : 378 MiB (2%)
    Title : DVO West
    Language : Russian
    Service kind : Complete Main
    Default : No
    Forced : No
    Audio #4
    ID : 5
    Format : AC-3
    Format/Info : Audio Coding 3
    Codec ID : A_AC3
    Duration : 1 h 57 min
    Bit rate mode : Constant
    Bit rate : 192 kb/s
    Channel(s) : 2 channels
    Channel positions : Front: L R
    Sampling rate : 48.0 kHz
    Frame rate : 31.250 FPS (1536 SPF)
    Bit depth : 16 bits
    Compression mode : Lossy
    Stream size : 162 MiB (1%)
    Title : MVO ORT
    Language : Russian
    Service kind : Complete Main
    Default : No
    Forced : No
    Audio #5
    ID : 6
    Format : DTS
    Format/Info : Digital Theater Systems
    Codec ID : A_DTS
    Duration : 1 h 58 min
    Bit rate mode : Constant
    Bit rate : 1 509 kb/s
    Channel(s) : 6 channels
    Channel positions : Front: L C R, Side: L R, LFE
    Sampling rate : 48.0 kHz
    Frame rate : 93.750 FPS (512 SPF)
    Bit depth : 24 bits
    Compression mode : Lossy
    Stream size : 1.24 GiB (5%)
    Title : DVO Glanz
    Language : Russian
    Default : No
    Forced : No
    Audio #6
    ID : 7
    Format : AC-3
    Format/Info : Audio Coding 3
    Codec ID : A_AC3
    Duration : 1 h 58 min
    Bit rate mode : Constant
    Bit rate : 192 kb/s
    Channel(s) : 2 channels
    Channel positions : Front: L R
    Sampling rate : 48.0 kHz
    Frame rate : 31.250 FPS (1536 SPF)
    Bit depth : 16 bits
    Compression mode : Lossy
    Stream size : 163 MiB (1%)
    Title : DVO NTV
    Language : Russian
    Service kind : Complete Main
    Default : No
    Forced : No
    Audio #7
    ID : 8
    Format : AC-3
    Format/Info : Audio Coding 3
    Codec ID : A_AC3
    Duration : 1 h 57 min
    Bit rate mode : Constant
    Bit rate : 192 kb/s
    Channel(s) : 2 channels
    Channel positions : Front: L R
    Sampling rate : 48.0 kHz
    Frame rate : 31.250 FPS (1536 SPF)
    Bit depth : 16 bits
    Compression mode : Lossy
    Stream size : 162 MiB (1%)
    Title : DVO RTR
    Language : Russian
    Service kind : Complete Main
    Default : No
    Forced : No
    Audio #8
    ID : 9
    Format : DTS
    Format/Info : Digital Theater Systems
    Codec ID : A_DTS
    Duration : 1 h 58 min
    Bit rate mode : Constant
    Bit rate : 1 509 kb/s
    Channel(s) : 6 channels
    Channel positions : Front: L C R, Side: L R, LFE
    Sampling rate : 48.0 kHz
    Frame rate : 93.750 FPS (512 SPF)
    Bit depth : 24 bits
    Compression mode : Lossy
    Stream size : 1.24 GiB (5%)
    Title : VO Gavrilov
    Language : Russian
    Default : No
    Forced : No
    Audio #9
    ID : 10
    Format : AC-3
    Format/Info : Audio Coding 3
    Codec ID : A_AC3
    Duration : 1 h 58 min
    Bit rate mode : Constant
    Bit rate : 448 kb/s
    Channel(s) : 6 channels
    Channel positions : Front: L C R, Side: L R, LFE
    Sampling rate : 48.0 kHz
    Frame rate : 31.250 FPS (1536 SPF)
    Bit depth : 16 bits
    Compression mode : Lossy
    Stream size : 378 MiB (2%)
    Title : VO Zhivov
    Language : Russian
    Service kind : Complete Main
    Default : No
    Forced : No
    Audio #10
    ID : 11
    Format : AC-3
    Format/Info : Audio Coding 3
    Codec ID : A_AC3
    Duration : 1 h 58 min
    Bit rate mode : Constant
    Bit rate : 448 kb/s
    Channel(s) : 6 channels
    Channel positions : Front: L C R, Side: L R, LFE
    Sampling rate : 48.0 kHz
    Frame rate : 31.250 FPS (1536 SPF)
    Bit depth : 16 bits
    Compression mode : Lossy
    Stream size : 378 MiB (2%)
    Title : VO Kazakov 1
    Language : Russian
    Service kind : Complete Main
    Default : No
    Forced : No
    Audio #11
    ID : 12
    Format : AC-3
    Format/Info : Audio Coding 3
    Codec ID : A_AC3
    Duration : 1 h 58 min
    Bit rate mode : Constant
    Bit rate : 448 kb/s
    Channel(s) : 6 channels
    Channel positions : Front: L C R, Side: L R, LFE
    Sampling rate : 48.0 kHz
    Frame rate : 31.250 FPS (1536 SPF)
    Bit depth : 16 bits
    Compression mode : Lossy
    Stream size : 378 MiB (2%)
    Title : VO Kazakov 2
    Language : Russian
    Service kind : Complete Main
    Default : No
    Forced : No
    Audio #12
    ID : 13
    Format : AC-3
    Format/Info : Audio Coding 3
    Codec ID : A_AC3
    Duration : 1 h 58 min
    Bit rate mode : Constant
    Bit rate : 448 kb/s
    Channel(s) : 6 channels
    Channel positions : Front: L C R, Side: L R, LFE
    Sampling rate : 48.0 kHz
    Frame rate : 31.250 FPS (1536 SPF)
    Bit depth : 16 bits
    Compression mode : Lossy
    Stream size : 378 MiB (2%)
    Title : VO MrRose
    Language : Russian
    Service kind : Complete Main
    Default : No
    Forced : No
    Audio #13
    ID : 14
    Format : AC-3
    Format/Info : Audio Coding 3
    Codec ID : A_AC3
    Duration : 1 h 58 min
    Bit rate mode : Constant
    Bit rate : 640 kb/s
    Channel(s) : 6 channels
    Channel positions : Front: L C R, Side: L R, LFE
    Sampling rate : 48.0 kHz
    Frame rate : 31.250 FPS (1536 SPF)
    Bit depth : 16 bits
    Compression mode : Lossy
    Stream size : 542 MiB (2%)
    Title : MVO Цікава ідея
    Language : Ukrainian
    Service kind : Complete Main
    Default : No
    Forced : No
    Audio #14
    ID : 15
    Format : DTS
    Format/Info : Digital Theater Systems
    Codec ID : A_DTS
    Duration : 1 h 58 min
    Bit rate mode : Constant
    Bit rate : 1 509 kb/s
    Channel(s) : 6 channels
    Channel positions : Front: L C R, Side: L R, LFE
    Sampling rate : 48.0 kHz
    Frame rate : 93.750 FPS (512 SPF)
    Bit depth : 24 bits
    Compression mode : Lossy
    Stream size : 1.25 GiB (5%)
    Title : Original
    Language : English
    Default : No
    Forced : No
    Audio #15
    ID : 16
    Format : AC-3
    Format/Info : Audio Coding 3
    Codec ID : A_AC3
    Duration : 1 h 58 min
    Bit rate mode : Constant
    Bit rate : 192 kb/s
    Channel(s) : 2 channels
    Channel positions : Front: L R
    Sampling rate : 48.0 kHz
    Frame rate : 31.250 FPS (1536 SPF)
    Bit depth : 16 bits
    Compression mode : Lossy
    Stream size : 162 MiB (1%)
    Title : Commentary (Gilliam)
    Language : English
    Service kind : Complete Main
    Default : No
    Forced : No
    Audio #16
    ID : 17
    Format : AC-3
    Format/Info : Audio Coding 3
    Codec ID : A_AC3
    Duration : 1 h 58 min
    Bit rate mode : Constant
    Bit rate : 192 kb/s
    Channel(s) : 2 channels
    Channel positions : Front: L R
    Sampling rate : 48.0 kHz
    Frame rate : 31.250 FPS (1536 SPF)
    Bit depth : 16 bits
    Compression mode : Lossy
    Stream size : 162 MiB (1%)
    Title : Commentary (actors)
    Language : English
    Service kind : Complete Main
    Default : No
    Forced : No
    Audio #17
    ID : 18
    Format : AC-3
    Format/Info : Audio Coding 3
    Codec ID : A_AC3
    Duration : 1 h 58 min
    Bit rate mode : Constant
    Bit rate : 192 kb/s
    Channel(s) : 2 channels
    Channel positions : Front: L R
    Sampling rate : 48.0 kHz
    Frame rate : 31.250 FPS (1536 SPF)
    Bit depth : 16 bits
    Compression mode : Lossy
    Stream size : 162 MiB (1%)
    Title : Commentary (Thompson)
    Language : English
    Service kind : Complete Main
    Default : No
    Forced : No
    Text #1
    ID : 19
    Format : UTF-8
    Codec ID : S_TEXT/UTF8
    Codec ID/Info : UTF-8 Plain Text
    Duration : 1 h 51 min
    Bit rate : 116 b/s
    Count of elements : 1431
    Stream size : 95.3 KiB (0%)
    Title : West
    Language : Russian
    Default : No
    Forced : No
    Text #2
    ID : 20
    Format : UTF-8
    Codec ID : S_TEXT/UTF8
    Codec ID/Info : UTF-8 Plain Text
    Duration : 1 h 51 min
    Bit rate : 124 b/s
    Count of elements : 1391
    Stream size : 102 KiB (0%)
    Title : Gavrilov
    Language : Russian
    Default : No
    Forced : No
    Text #3
    ID : 21
    Format : UTF-8
    Codec ID : S_TEXT/UTF8
    Codec ID/Info : UTF-8 Plain Text
    Duration : 1 h 57 min
    Bit rate : 157 b/s
    Count of elements : 2056
    Stream size : 135 KiB (0%)
    Title : Stewie
    Language : Russian
    Default : No
    Forced : No
    Text #4
    ID : 22
    Format : UTF-8
    Codec ID : S_TEXT/UTF8
    Codec ID/Info : UTF-8 Plain Text
    Duration : 1 h 56 min
    Bit rate : 133 b/s
    Count of elements : 1710
    Stream size : 115 KiB (0%)
    Title : sunny-sko
    Language : Russian
    Default : No
    Forced : No
    Text #5
    ID : 23
    Format : UTF-8
    Codec ID : S_TEXT/UTF8
    Codec ID/Info : UTF-8 Plain Text
    Duration : 1 h 57 min
    Bit rate : 83 b/s
    Count of elements : 1898
    Stream size : 71.7 KiB (0%)
    Title : Original
    Language : English
    Default : No
    Forced : No
    Text #6
    ID : 24
    Format : UTF-8
    Codec ID : S_TEXT/UTF8
    Codec ID/Info : UTF-8 Plain Text
    Duration : 1 h 57 min
    Bit rate : 92 b/s
    Count of elements : 2047
    Stream size : 79.7 KiB (0%)
    Title : SDH
    Language : English
    Default : No
    Forced : No
    Menu
    00: 00: 00.000 : en: When the Drugs Began to Take Hold (Main Titles)
    00: 05: 53.687 : en: 24 Hours Ago...
    00: 10: 34.676 : en: 30 Minutes to Vegas
    00: 14: 21.194 : en: Madness at the Mint
    00: 20: 49.206 : en: Your Photographer
    00: 22: 39.108 : en: The Sporting Press
    00: 27: 22.683 : en: Stones, Ripped and Twisted
    00: 31: 20.837 : en: The Perfect Drug for Vegas
    00: 35: 24.539 : en: In the Vortex
    00: 38: 54.582 : en: Menacing Vibrations
    00: 40: 05.737 : en: The Woman in the Elevator
    00: 44: 38.384 : en: Humping the American Dream
    00: 45: 52.750 : en: Going Completely Sideways
    00: 52: 23.182 : en: The Acid Wave
    00: 57: 01.710 : en: Horrible Realities
    01: 01: 22.846 : en: The Weasels are Closing In
    01: 06: 12.719 : en: Stuck Inside of Baker
    01: 08: 10.545 : en: The Pigs are Gathering in Vegas
    01: 12: 29.804 : en: The Preternatural Courtship
    01: 19: 37.606 : en: Inside the Possessed Mind
    01: 23: 44.937 : en: The Last of Lucy
    01: 28: 47.364 : en: Too Much Adrenochrome
    01: 33: 06.247 : en: Grim Memories and Bad Flashbacks
    01: 38: 02.085 : en: Welcome to the Happy Place
    01: 41: 11.524 : en: The Sight of the Blade
    01: 47: 03.083 : en: The Hard Way to the Airport
    01: 49: 05.581 : en: One of God\'s Own Prototypes
    01: 50: 17.361 : en: The Survival Trip
    01: 51: 26.847 : en: Just Another Freak in the Freak Kingdom
    01: 52: 17.981 : en: End Titles
    Гибрид получен путем автоматического совмещения WEB-DL Amazon и HDTV-трансляции первого канала в open matte, а также широкоэкранного BD EUR.
    BD EUR имеет видеопоток наилучшего качества, но содержит поврежденные кадры, которые заменены на аналогичные с издания Criterion.
    В отличие от предыдущих open matte раздач этого фильма здесь все эпизоды, чистый видеоряд, отсутствуют пансканированные врезки, хорошее качество.
    За предоставленный WEB-DL Amazon спасибо maksnew


    Скриншоты для ознакомления



    Все одноименные релизы в Клубе
    Время раздачи: 24/7 до первых 10-и скачавших


    Страх и ненависть в Лас-Вегасе/Fear and Loathing in Las Vegas (1998) BDRip [H.264/1080p] [Hybrid] [Open Matte]
    Рейтинг →
     (голосов: 1, оценка 3/5, голосовать можно 1 раз )

    Другие торренты по теме:

  • Страх и ненависть в Лас-Вегасе (Fear and Loathing in Las Vegas) (1998) [MP4 | 1280x544] <BDRip H.264>
  • Страх и ненависть в Лас-Вегасе / Fear and Loathing in Las Vegas (1998) DVDRip [H.264]
  • Новые русские сенсации. Страх и ненависть Большого (2016.06.25) SATRip
  • Страх и ненависть в Лас-Вегасе / Fear and Loathing in Las Vegas (1998) HDTV [H.264 / 720p] [Open Matte]
  • Страх и ненависть в Лас-Вегасе / Fear and Loathing in Las Vegas (1998) BDRip [1080p] ATV
  • Страх и ненависть в Лас-Вегасе / Fear and Loathing in Las Vegas (1998) HDRip


    • Комментарии (0):

      Информация

      Информация

        Посетители, находящиеся в группе Гости, не могут оставлять комментарии в данной новости.

        ↓ Меню




        ↓ Опрос

        Вы добавили сайт в закладки?
        Да
        Нет


        Популярное