.
Авторизация | Регистрация

bitok.xyz

» » Взлеты и падения: Фильм / High & Low: The Movie (2016) HDRip [MVO] [AD] торрент скачать бесплатно


    Взлеты и падения: Фильм / High & Low: The Movie (2016) HDRip [MVO] [AD] торрент скачать бесплатно

    Дата: 15-07-2018, 05:00 | .torrent скачали: 1

    Взлеты и падения: Фильм / High & Low: The Movie (2016) HDRip [MVO] [AD]Производство: Япония/Shochiku Company
    Жанр: Боевик, драма
    Режиссер: Сигэаки Кубо

    Актеры
    Леон Шибли Ахмад, Акира, Нозоми де Ланкесэ, Элли, Таканори Ивата, Кейдзи Куроки, Кэйта Матида, Таики Сато, Сынри

    Описание

    Чику - опустошенный и опасный город района S.W.O.R.D. с пятью яростно сражающимися бандами, среди которых доминировала легендарная банда Мугена. После очередного сражения с бандой Братьев Амамия банда Муген была ликвидирована... Но как оказалось, это ещё не конец...

    Продолжительность: 02: 09: 53
    Качество видео: HDRip
    Перевод: Многоголосый закадровый, любительский (MUZOBOZ)
    Субтитры: Отсутствуют
    Реклама: Присутствуют вставки текстовой рекламы
    Видео: XviD, 720x304, ~1297 Kbps
    Аудио: AC-3, 2 ch, 192 Kbps

    Общее
    Полное имя : E: NNMВзлёты и падения 1High Low The Movie 2016 HDRip.avi
    Формат : AVI
    Формат/Информация : Audio Video Interleave
    Профиль формата : OpenDML
    Размер файла : 1, 36 Гбайт
    Продолжительность : 2 ч. 9 м.
    Общий поток : 1501 Кбит/сек
    Видео
    Идентификатор : 0
    Формат : MPEG-4 Visual
    Профиль формата : Advanced Simple@L5
    Настройки формата : BVOP2
    Параметр BVOP формата : 2
    Параметр QPel формата : Нет
    Параметр GMC формата : Без точки перехода
    Параметр матрицы формата : Default (H.263)
    Идентификатор кодека : XVID
    Идентификатор кодека/Подсказка : XviD
    Продолжительность : 2 ч. 9 м.
    Битрейт : 1297 Кбит/сек
    Ширина : 720 пикселей
    Высота : 304 пикселя
    Соотношение сторон : 2, 35: 1
    Частота кадров : 23, 976 (24000/1001) кадра/сек
    Цветовое пространство : YUV
    Субдискретизация насыщенности : 4: 2: 0
    Битовая глубина : bit0
    Тип развёртки : Прогрессивная
    Метод сжатия : С потерями
    Бит/(Пиксели*Кадры) : 0.247
    Размер потока : 1, 18 Гбайт (86%)
    Библиотека кодирования : XviD 1.2.1 (UTC 2008-12-04)
    Аудио
    Идентификатор : 1
    Формат : AC-3
    Формат/Информация : Audio Coding 3
    Идентификатор кодека : 2000
    Продолжительность : 2 ч. 9 м.
    Вид битрейта : Постоянный
    Битрейт : 192 Кбит/сек
    Каналы : 2 канала
    Расположение каналов : Front: L R
    Частота : 48, 0 КГц
    Частота кадров : 31, 250 кадров/сек (1536 SPF)
    Битовая глубина : 16 бит
    Метод сжатия : С потерями
    Размер потока : 178 Мбайт (13%)
    Выравнивание : Соединение по промежуткам
    Продолжительность промежутка : 32 мс. (0, 77 видеокадр)
    ServiceKind/String : Complete Main

    Скриншоты для ознакомления



    Все одноименные релизы в Клубе Время раздачи: 24/7 (до появления первых 3-5 скачавших)


    Взлеты и падения: Фильм/High & Low: The Movie (2016) HDRip [MVO] [AD]
    Рейтинг →
     (голосов: 1, оценка 5/5, голосовать можно 1 раз )

    Другие торренты по теме:

  • Взлеты и падения: Фильм / High & Low: The Movie (2016) BDRip [H.264 / 720p] [JAP / EN Sub]
  • Взлеты и падения: История Дьюи Кокса / Walk Hard: The Dewey Cox Story (Unrated Edition) (2007) HDRip [H.264] [MVO]
  • Ручир Шарма | Взлеты и падения государств (2018) [FB2]
  • Ручир Шарма | Взлеты и падения государств (2018) [MP3]
  • Ручир Шарма | Взлеты и падения государств (2018) [m4b|AAC]
  • Пол Кеннеди | Взлеты и падения великих держав (2018) [FB2]


    • Комментарии (0):

      Информация

      Информация

        Посетители, находящиеся в группе Гости, не могут оставлять комментарии в данной новости.

        ↓ Меню




        ↓ Опрос

        Вы добавили сайт в закладки?
        Да
        Нет


        Популярное