.
Авторизация | Регистрация

bitok.xyz

» » Взлёты и падения: Последняя миссия / High & Low: The Movie 3 - Final Mission (2017) HDRip [MVO] [AD] торрент скачать бесплатно


    Взлёты и падения: Последняя миссия / High & Low: The Movie 3 - Final Mission (2017) HDRip [MVO] [AD] торрент скачать бесплатно

    Дата: 15-07-2018, 05:00 | .torrent скачали: 7

    Взлёты и падения: Последняя миссия / High & Low: The Movie 3 - Final Mission (2017) HDRip [MVO] [AD]Производство: Япония/HI-AX
    Жанр: Боевик, драма
    Режиссер: Сигэаки Кубо, Цуёси Накакуки

    Актеры
    Акира, Анарчи, Сё Аоягиб Элли, Юя Эндо, Хацунори Хасэгава, Кэнто Хаяси, Кэисукэ Хорибэ, Ватару Итиносэ, Наоко Иидзима

    Описание

    Чтобы скрыть коррупцию со стороны правительства, специально обученная для этого группа Kyuryu снова выходитиз тени. Но на их пути встают члены SWORD, которые не допустят преступлений на улицах их города.

    Продолжительность: 01: 58: 04
    Качество видео: HDRip
    Перевод: Многоголосый закадровый, любительский (КОЛОБОК)
    Субтитры: Отсутствуют
    Реклама: Присутствуют вставки текстовой рекламы
    Видео: XviD, 720x304, ~1430 Kbps
    Аудио: AC-3, 2 ch, 192 Kbps

    Общее
    Полное имя : E: NNMВзлёты и падения 3High Low The Movie 3 Final Mission 2017 HDRip.avi
    Формат : AVI
    Формат/Информация : Audio Video Interleave
    Профиль формата : OpenDML
    Размер файла : 1, 35 Гбайт
    Продолжительность : 1 ч. 58 м.
    Общий поток : 1635 Кбит/сек
    Видео
    Идентификатор : 0
    Формат : MPEG-4 Visual
    Профиль формата : Advanced Simple@L5
    Настройки формата : BVOP2
    Параметр BVOP формата : 2
    Параметр QPel формата : Нет
    Параметр GMC формата : Без точки перехода
    Параметр матрицы формата : Default (MPEG)
    Идентификатор кодека : XVID
    Идентификатор кодека/Подсказка : XviD
    Продолжительность : 1 ч. 58 м.
    Битрейт : 1430 Кбит/сек
    Ширина : 720 пикселей
    Высота : 304 пикселя
    Соотношение сторон : 2, 35: 1
    Частота кадров : 23, 976 (24000/1001) кадра/сек
    Цветовое пространство : YUV
    Субдискретизация насыщенности : 4: 2: 0
    Битовая глубина : 8 бит
    Тип развёртки : Прогрессивная
    Метод сжатия : С потерями
    Бит/(Пиксели*Кадры) : 0.273
    Размер потока : 1, 18 Гбайт (87%)
    Библиотека кодирования : XviD 1.2.1 (UTC 2008-12-04)
    Аудио
    Идентификатор : 1
    Формат : AC-3
    Формат/Информация : Audio Coding 3
    Идентификатор кодека : 2000
    Продолжительность : 1 ч. 58 м.
    Вид битрейта : Постоянный
    Битрейт : 192 Кбит/сек
    Каналы : 2 канала
    Расположение каналов : Front: L R
    Частота : 48, 0 КГц
    Частота кадров : 31, 250 кадров/сек (1536 SPF)
    Битовая глубина : 16 бит
    Метод сжатия : С потерями
    Размер потока : 162 Мбайт (12%)
    Выравнивание : Соединение по промежуткам
    Продолжительность промежутка : 32 мс. (0, 77 видеокадр)
    ServiceKind/String : Complete Main

    Скриншоты для ознакомления



    Все одноименные релизы в Клубе Время раздачи: 24/7 (до появления первых 3-5 скачавших)


    Взлёты и падения: Последняя миссия/High & Low: The Movie 3 - Final Mission (2017) HDRip [MVO] [AD]
    Рейтинг →
     (голосов: 1, оценка 4/5, голосовать можно 1 раз )

    Другие торренты по теме:

  • Взлёты и падения / The Vertigo Years: Europe, 1900-1914 (2013) HDTVRip [H.264 / 720p-LQ] (3 серии из 3)
  • Взлёты и падения / The Vertigo Years: Europe, 1900-1914 (2013) HDTVRip (3 серии из 3)
  • Тайгер Вудс: взлёты и падения / Tiger Woods: The Rise And Fall (2010) HDTV [H.264 / 1080i-LQ]
  • Взлёты и падения: Красный дождь / High & Low The Red Rain (2016) HDRip [MVO] [AD]
  • Взлёты и падения: Конец неба / HiGH & LOW the Movie 2: End of SKY (2017) HDRip [MVO] [AD]


    • Комментарии (0):

      Информация

      Информация

        Посетители, находящиеся в группе Гости, не могут оставлять комментарии в данной новости.

        ↓ Меню




        ↓ Опрос

        Вы добавили сайт в закладки?
        Да
        Нет


        Популярное