.
Авторизация | Регистрация
bitok.xyz
» » Шок и трепет / Shock and Awe (2017) WEB-DLRip [MVO] [AD] торрент скачать бесплатно


    Шок и трепет / Shock and Awe (2017) WEB-DLRip [MVO] [AD] торрент скачать бесплатно

    Дата: 18-07-2018, 05:00 | .torrent скачали: 2

    Шок и трепет / Shock and Awe (2017) WEB-DLRip [MVO] [AD]Производство: США/Acacia Filmed Entertainment, Castle Rock Entertainment, Savvy Media Holdings
    Жанр: Триллер, драма, биография, история
    Режиссер: Роб Райнер
    Продюсеры: Элизабет А. Белл, Мэттью Джордж, Michele Reiner

    Актеры
    Джеймс Марсден, Вуди Харрельсон, Джессика Бил, Милла Йовович, Томми Ли Джонс, Роб Райнер, Ричард Шифф, Тери Уайбл, Ал Сапиенца, Кейт Батлер

    Описание

    История о военной кампании США по вторжению в Ирак под предлогом обнаружения там оружия массового поражения. Операция, получившая неофициальное название Шок и трепет, началась 20 марта 2003 года с целью свержения режима Саддама Хуссейна и растянулась на долгие 9 лет.

    Рейтинг MPAA: R (лицам до 17 лет обязательно присутствие взрослого)
    Дата мировой премьеры: 30 сентября 2017
    Продолжительность: 01: 30: 46
    Качество видео: WEB-DLRip
    Перевод: Многоголосый закадровый, любительский (MUZOBOZ)
    Субтитры: отсутствуют
    Реклама: Присутствуют вставки аудио и текстовой рекламы !
    Видео: Xvid, 720x384, ~1663 Kbps
    Аудио: AC3, 2 ch, 384 Kbps
    Общее
    Полное имя : D: CDШок и трепет (Tриллер-Драма) (2017) WEB-DLRipШок и трепет (Триллер-Драма) (2017) WEB-DLRip-MVO.avi
    Формат : AVI
    Формат/Информация : Audio Video Interleave
    Размер файла : 1, 30 Гбайт
    Продолжительность : 1 ч. 30 м.
    Общий поток : 2057 Кбит/сек
    Программа кодирования : VirtualDubMod 1.5.10.2 (build 2540/release)
    Библиотека кодирования : VirtualDub build 35576/release
    Видео
    Идентификатор : 0
    Формат : MPEG-4 Visual
    Профиль формата : Advanced Simple@L5
    Настройки формата : BVOP2/Custom Matrix
    Параметр BVOP формата : 2
    Параметр QPel формата : Нет
    Параметр GMC формата : Без точки перехода
    Параметр матрицы формата : Выборочная
    Идентификатор кодека : XVID
    Идентификатор кодека/Подсказка : XviD
    Продолжительность : 1 ч. 30 м.
    Битрейт : 1663 Кбит/сек
    Ширина : 720 пикселей
    Высота : 384 пикселя
    Соотношение сторон : 1, 85: 1
    Частота кадров : 23, 976 (24000/1001) кадра/сек
    Цветовое пространство : YUV
    Субдискретизация насыщенности : 4: 2: 0
    Битовая глубина : 8 бит
    Тип развёртки : Прогрессивная
    Метод сжатия : С потерями
    Бит/(Пиксели*Кадры) : 0.251
    Размер потока : 1, 05 Гбайт (81%)
    Библиотека кодирования : XviD 1.2.1 (UTC 2008-12-04)
    Аудио
    Идентификатор : 1
    Формат : AC-3
    Формат/Информация : Audio Coding 3
    Идентификатор кодека : 2000
    Продолжительность : 1 ч. 30 м.
    Вид битрейта : Постоянный
    Битрейт : 384 Кбит/сек
    Каналы : 2 канала
    Расположение каналов : Front: L R
    Частота : 48, 0 КГц
    Частота кадров : 31, 250 кадров/сек (1536 SPF)
    Битовая глубина : 16 бит
    Метод сжатия : С потерями
    Размер потока : 249 Мбайт (19%)
    Выравнивание : Разделение по промежуткам
    Продолжительность промежутка : 42 мс. (1, 00 видеокадр)
    Время предзагрузки промежутка : 500 мс.
    ServiceKind/String : Complete Main


    Шок и трепет/Shock and Awe (2017) WEB-DLRip [MVO] [AD]
    Рейтинг →
     (голосов: 1, оценка 3/5, голосовать можно 1 раз )

    Другие торренты по теме:

  • Шок и трепет / Shock and Awe (2017) BDRemux [H.264 / 1080p] [EN / EN Sub]
  • Опасное расследование (Шок и трепет) / Shock and Awe (2017) BDRip [H.264]
  • Опасное расследование (Шок и трепет) / Shock and Awe (2017) BDRip [H.264 / 1080p]
  • Опасное расследование (Шок и трепет) Shock and Awe (2017) BDRip [1080p] ATV


    • Комментарии (0):

      Информация

      Информация

        Посетители, находящиеся в группе Гости, не могут оставлять комментарии в данной новости.

        ↓ Меню




        ↓ Опрос

        Вы добавили сайт в закладки?
        Да
        Нет


        Популярное