.
Авторизация | Регистрация

bitok.xyz

» » Неугасающий / Forever Strong (2008) DVB [H.264 / 1080i-LQ] [AD] торрент скачать бесплатно


    Неугасающий / Forever Strong (2008) DVB [H.264 / 1080i-LQ] [AD] торрент скачать бесплатно

    Дата: 18-07-2018, 05:00 | .torrent скачали: 4

    Неугасающий / Forever Strong (2008) DVB [H.264 / 1080i-LQ] [AD]Производство: США/Go Films, Picture Rock Entertainment
    Жанр: Драма, Спорт
    Режиссер: Райан Литтл

    Актеры
    Шон Фэрис, Гэри Коул, Шон Эстин, Нил МакДонаф, Джули Уорнер, Пенн Бэджли, Элиот Бенжамин, Майкл Дж. Паган, Натан Уэст, Макс Кэш, Ариэль Кеббел, Джон Кепа Крус, Джереми Эрл, Ларри Бэгби, Лоурен МакНайт, Джимми Чанга, Тайлер Кейн

    Описание

    Рик Пенинг живёт точно так же, как играет в регби: быстро, жёстко и интенсивно. Когда такая жизнь доводит его до тюрьмы, тюремный опекун Маркус Тэйт предлагает ему шанс возвратиться к игре, но играя за его конкурентов, Highland Rugby. Неохотно Рик присоединяется к команде, где он должен принять изнурительный график обучения и уникальный кодекс поведения, который предписывает тренер Джелвикс, или завершить сезон любимого сериала за решеткой. Как только Рик начинает чувствовать себя частью команды, его выпускают из тюрьмы домой, где он должен присоединиться к его прежней команде, тренируемой его отцом. Выпадая в жеребьевке против Highland, в национальном чемпионате, Рик должен выбрать за кого играть…

    Возраст: 12+ (зрителям, достигшим 12 лет)
    Рейтинг MPAA: PG-13 (детям до 13 лет просмотр нежелателен)
    Продолжительность: 01: 46: 13
    Качество видео: DVB 1080i
    Перевод: Многоголосый закадровый, профессиональный
    Субтитры: отсутствуют
    Видео: AVC/H.264, 1920х1080, ~6774 Kbps
    Аудио: MP2, 2 ch, 192 Kbps

    Общее
    Идентификатор : 16 (0x10)
    Полное имя : Forever Strong_2008_HD.ts
    Формат : MPEG-TS
    Размер файла : 5, 44 Гбайт
    Продолжительность : 1 ч. 46 м.
    Режим общего битрейта : Переменный
    Общий поток : 7331 Кбит/сек
    Видео
    Идентификатор : 1502 (0x5DE)
    Идентификатор меню : 502 (0x1F6)
    Формат : AVC
    Формат/Информация : Advanced Video Codec
    Профиль формата : High@L4
    Настройки формата : CABAC/3 Ref Frames
    Параметр CABAC формата : Да
    Параметр RefFrames формата : 3 кадра
    Параметр GOP формата : M=4, N=32
    Идентификатор кодека : 27
    Продолжительность : 1 ч. 46 м.
    Битрейт : 6774 Кбит/сек
    Ширина : 1920 пикселей
    Высота : 1080 пикселей
    Соотношение сторон : 16: 9
    Частота кадров : 25, 000 кадров/сек
    Стандарт вещания : PAL
    Цветовое пространство : YUV
    Субдискретизация насыщенности : 4: 2: 0
    Битовая глубина : 8 бит
    Тип развёртки : Чересстрочная
    Метод сохранения типа развёртки : Раздельные поля
    Порядок развёртки : Верхнее поле первое
    Бит/(Пиксели*Кадры) : 0.131
    Размер потока : 5, 03 Гбайт (92%)
    Цветовой диапазон : Limited
    Основные цвета : BT.709
    Характеристики трансфера : BT.709
    Коэффициенты матрицы : BT.709
    Аудио
    Идентификатор : 2502 (0x9C6)
    Идентификатор меню : 502 (0x1F6)
    Формат : MPEG Audio
    Версия формата : Version 1
    Профиль формата : Layer 2
    Идентификатор кодека : 4
    Продолжительность : 1 ч. 46 м.
    Вид битрейта : Постоянный
    Битрейт : 192 Кбит/сек
    Каналы : 2 канала
    Частота : 48, 0 КГц
    Метод сжатия : С потерями
    Задержка видео : 35 мс.
    Размер потока : 146 Мбайт (3%)
    Язык : std
    Язык, дополнительно : Clean effects

    Скриншоты для ознакомления



    Все одноименные релизы в Клубе
    Время раздачи: Сб-Вс с 09: 00 до 23: 30 (до появления первых 3-5 скачавших)


    Неугасающий/Forever Strong (2008) DVB [H.264/1080i-LQ] [AD]
    Рейтинг →
     (голосов: 1, оценка 5/5, голосовать можно 1 раз )

    Другие торренты по теме:



      Комментарии (0):

      Информация

      Информация

        Посетители, находящиеся в группе Гости, не могут оставлять комментарии в данной новости.

        ↓ Меню




        ↓ Опрос

        Вы добавили сайт в закладки?
        Да
        Нет


        Популярное